Поиск

(Free Improvisation) Mario Schiano (with Sebi Tramontana, Evan Parker, Barry Guy, Paul Lovens) - Social Security - 1997, FLAC (tracks+.cue), lossless

Треклист:
Mario Schiano - Social Security
Жанр: Free Improvisation
Год выпуска диска: 1997
Производитель диска: Les Disques Victo (VICTO cd043)
Источник: вот.сиди (weareborg)
Аудио кодек: FLAC
Тип рипа: tracks+.cue
Битрейт аудио: lossless
Продолжительность: 1:05:15
Трэклист:
Social Security Part I 20:51
Social Security Part II 19:15
Social Security Part II 13:51
Social Security Part IV 11:17
Recorded live at 13th Festival International de Musique Actuelle de Victoriaville on 17 Mai 1996
Sebi Tramontana trombone
Evan Parker tenor & soprano saxophones
Barry Guy contrabass
Paul Lovens drums, percussion
Mario Schiano alto saxophone
 
Отчёт EAC
Exact Audio Copy V0.99 prebeta 4 from 23. January 2008
EAC extraction logfile from -
sebi tramontana,paul lovens,evan parker,barry guy,mario schiano / mario schiano-social security
Used drive : TSSTcorpCDDVDW SH-S223F Adapter: 0 ID: 0
Read mode : Secure
Utilize accurate stream : Yes
Defeat audio cache : Yes
Make use of C2 pointers : No
Read offset correction : 6
Overread into Lead-In and Lead-Out : No
Fill up missing offset samples with silence : Yes
Delete leading and trailing silent blocks : No
Null samples used in CRC calculations : No
Used interface : Installed external ASPI interface
Gap handling : Appended to previous track
Used output format : Internal WAV Routines
Sample format : 44.100 Hz; 16 Bit; Stereo
TOC of the extracted CD
Track | Start | Length | Start sector | End sector
---------------------------------------------------------
1 | 0:00.00 | 20:51.27 | 0 | 93851
2 | 20:51.27 | 19:15.33 | 93852 | 180509
3 | 40:06.60 | 13:51.30 | 180510 | 242864
4 | 53:58.15 | 11:17.05 | 242865 | 293644
Track 1
Filename C:\out\schiano,mario-social security\mario_schiano-social_security-[victoriaville-13]-01-part_i.wav
Pre-gap length 0:00:02.00
Peak level 100.0 %
Track quality 100.0 %
Copy CRC 2612A7F4
Track not present in AccurateRip database
Copy OK
Track 2
Filename C:\out\schiano,mario-social security\mario_schiano-social_security-[victoriaville-13]-02-part_ii.wav
Peak level 99.7 %
Track quality 100.0 %
Copy CRC 9F9DB02B
Track not present in AccurateRip database
Copy OK
Track 3
Filename C:\out\schiano,mario-social security\mario_schiano-social_security-[victoriaville-13]-03-part_iii.wav
Peak level 74.9 %
Track quality 100.0 %
Copy CRC DAA4ED38
Track not present in AccurateRip database
Copy OK
Track 4
Filename C:\out\schiano,mario-social security\mario_schiano-social_security-[victoriaville-13]-04-part_iv.wav
Peak level 86.3 %
Track quality 99.9 %
Copy CRC 1EF5F24B
Track not present in AccurateRip database
Copy OK
None of the tracks are present in the AccurateRip database
No errors occurred
End of status report
 
Отчёт Audiocheckera
AUDIOCHECKER v2.0 beta (build 457) - by Dester - opdester@freemail.hu
~~~~~~~~~~~~~~~~~~~~~~~~~~~~~~~~~~
-=== DO NOT EDIT THIS FILE! ===-
Path: ...\Mario Schiano - 1996 - Social Security (log, cue)
1 -=- 01 Part I.flac -=- CDDA (100%)
2 -=- 02 Part II.flac -=- CDDA (100%)
3 -=- 03 Part III.flac -=- CDDA (100%)
4 -=- 04 Part IV.flac -=- CDDA (100%)
Summary 100,00% CDDA
214095476
 
cue
REM DATE 1996
REM DISCID 240F4B04
REM COMMENT "ExactAudioCopy v0.99pb4"
PERFORMER "sebi tramontana,paul lovens,evan parker,barry guy,mario schiano"
TITLE "mario schiano-social security"
FILE "mario_schiano-social_security-[victoriaville-13]-01-part_i.wav" WAVE
TRACK 01 AUDIO
TITLE "part_i"
PERFORMER "sebi tramontana,paul lovens,evan parker,barry guy,mario schiano"
INDEX 01 00:00:00
FILE "mario_schiano-social_security-[victoriaville-13]-02-part_ii.wav" WAVE
TRACK 02 AUDIO
TITLE "part_ii"
PERFORMER "sebi tramontana,paul lovens,evan parker,barry guy,mario schiano"
INDEX 01 00:00:00
FILE "mario_schiano-social_security-[victoriaville-13]-03-part_iii.wav" WAVE
TRACK 03 AUDIO
TITLE "part_iii"
PERFORMER "sebi tramontana,paul lovens,evan parker,barry guy,mario schiano"
INDEX 01 00:00:00
FILE "mario_schiano-social_security-[victoriaville-13]-04-part_iv.wav" WAVE
TRACK 04 AUDIO
TITLE "part_iv"
PERFORMER "sebi tramontana,paul lovens,evan parker,barry guy,mario schiano"
INDEX 01 00:00:00
По всем вопросам пишите личное сообщение пользователю M0p94ok.
23:37
160
Нет комментариев. Ваш будет первым!