Вы используете незарегистрированную версию компонента "Вкладки"!

Поиск

(Free Improvisation) Marc Baron / Bertrand Denzler / Jean-Luc Guionnet / Stéphane (Stephane) Rives - Propagations - 2007, FLAC (tracks+.cue), lossless

(Free Improvisation) Marc Baron / Bertrand Denzler / Jean-Luc Guionnet / Stéphane (Stephane) Rives - Propagations - 2007, FLAC (tracks+.cue), lossless
Треклист:
Marc Baron / Bertrand Denzler / Jean-Luc Guionnet / Stéphane Rives - Propagations
Жанр: Free Improvisation
Страна-производитель диска: Франция
Год издания: 2007
Издатель (лейбл): Potlatch
Номер по каталогу: P107
Страна: Франция
Аудиокодек: FLAC (*.flac)
Тип рипа: tracks+.cue
Битрейт аудио: lossless
Продолжительность: 41:04
Источник (релизер): вот.сиди (chaouarma)
Наличие сканов в содержимом раздачи: нет
Треклист:
1 Part 1 9:54
2 Part 2 13:47
3 Part 3 17:21
recorded on 12 January 2007 at Carre Bleu, Poitiers
 
Лог создания рипа
X Lossless Decoder version 20100518 (120.3)
XLD extraction logfile from 2010-06-08 20:02:41 -0400
Marc Baron/Bertrand Denzler/Jean-Luc Guionnet/Stéphane Rives / Propagations
Used drive : MATSHITA DVD-R UJ-868 (revision KB19)
Use cdparanoia mode : YES (CDParanoia III 10.2 engine)
Disable audio cache : OK for the drive with cache less than 2750KB
Make use of C2 pointers : NO
Read offset correction : 102
Max retry count : 100
TOC of the extracted CD
Track | Start | Length | Start sector | End sector
---------------------------------------------------------
1 | 00:00:00 | 09:54:55 | 0 | 44604
2 | 09:54:55 | 13:47:46 | 44605 | 106675
3 | 23:42:26 | 17:21:48 | 106676 | 184798
Track 01
Filename : /Volumes/G-DRIVE Q/kebab/01 - Part 1.flac
Pre-gap length : 00:02:00
CRC32 hash (test run) : 86B8A8F1
CRC32 hash : 86B8A8F1
CRC32 hash (skip zero) : 204FC211
AccurateRip signature : C8654CE4
->Accurately ripped! (confidence 1)
Statistics
Read error : 0
Skipped (treated as error) : 0
Edge jitter error (maybe fixed) : 0
Atom jitter error (maybe fixed) : 0
Drift error (maybe fixed) : 0
Dropped bytes error (maybe fixed) : 0
Duplicated bytes error (maybe fixed) : 0
Inconsistency in error sectors : 0
Track 02
Filename : /Volumes/G-DRIVE Q/kebab/02 - Part 2.flac
CRC32 hash (test run) : 30DF8122
CRC32 hash : 30DF8122
CRC32 hash (skip zero) : 13F21A5E
AccurateRip signature : 0DA54ABA
->Accurately ripped! (confidence 1)
Statistics
Read error : 0
Skipped (treated as error) : 0
Edge jitter error (maybe fixed) : 0
Atom jitter error (maybe fixed) : 0
Drift error (maybe fixed) : 0
Dropped bytes error (maybe fixed) : 0
Duplicated bytes error (maybe fixed) : 0
Inconsistency in error sectors : 0
Track 03
Filename : /Volumes/G-DRIVE Q/kebab/03 - Part 3.flac
CRC32 hash (test run) : 3716BF1B
CRC32 hash : 3716BF1B
CRC32 hash (skip zero) : 6F1AAF66
AccurateRip signature : A4AFFC50
->Accurately ripped! (confidence 1)
Statistics
Read error : 0
Skipped (treated as error) : 0
Edge jitter error (maybe fixed) : 0
Atom jitter error (maybe fixed) : 0
Drift error (maybe fixed) : 0
Dropped bytes error (maybe fixed) : 0
Duplicated bytes error (maybe fixed) : 0
Inconsistency in error sectors : 0
No errors occurred
End of status report
 
Содержание индексной карты (.CUE)
TITLE "Propagations"
PERFORMER "Marc Baron/Bertrand Denzler/Jean-Luc Guionnet/Stéphane Rives"
REM GENRE "Jazz"
REM DATE 2007
REM DISCNUMBER 1
REM TOTALDISCS 1
REM DISCID 21099F03
FILE "01 - Part 1.wav" WAVE
TRACK 01 AUDIO
TITLE "Part 1"
INDEX 01 00:00:00
FILE "02 - Part 2.wav" WAVE
TRACK 02 AUDIO
TITLE "Part 2"
INDEX 01 00:00:00
FILE "03 - Part 3.wav" WAVE
TRACK 03 AUDIO
TITLE "Part 3"
INDEX 01 00:00:00
 
Лог проверки качества
AUDIOCHECKER v2.0 beta (build 457) - by Dester - opdester@freemail.hu
~~~~~~~~~~~~~~~~~~~~~~~~~~~~~~~~~~
-=== DO NOT EDIT THIS FILE! ===-
Path: ...\Propagations
1 -=- 01 - Part 1.flac -=- CDDA (100%)
2 -=- 02 - Part 2.flac -=- CDDA (100%)
3 -=- 03 - Part 3.flac -=- MPEG (89%)
Summary 70,33% CDDA
174133236
 
Скриншот спектра частот
 
Состав
-->
Stéphane Rives soprano saxophone
Jean-Luc Guionnet alto saxophone
Marc Baron alto saxophone
Bertrand Denzler tenor saxophone
Any questions -> support@pro-jazz.com. По всем вопросам пишите -> support@pro-jazz.com
23:27
267
Нет комментариев. Ваш будет первым!