Вы используете незарегистрированную версию компонента "Вкладки"!

Поиск

(Free Improvisation) Loren Mazzacane Connors, Jean-Marc Montera, Thurston Moore, Lee Ranaldo - MMMR - 1997, FLAC (image+.cue), lossless

Треклист:
Loren Mazzacane Connors, Jean-Marc Montera, Thurston Moore, Lee Ranaldo / MMMR
Жанр: Free Improvisation
Страна-производитель диска: USA
Год издания: 1997
Издатель (лейбл): Xeric
Номер по каталогу: X 99.5
Страна: USA
Аудиокодек: FLAC (*.flac)
Тип рипа: image+.cue
Битрейт аудио: lossless
Продолжительность: 41:54
Источник (релизер): Собственный CD
Наличие сканов в содержимом раздачи: да
Треклист:
1. Mazzacane Connors / Montera 11:11
2. Mazzacane Connors / Montera / Moore 10:07
3. Mazzacane Connors / Montera / Moore / Ranaldo 20:35
 
Лог создания рипа
Exact Audio Copy V1.0 beta 3 from 29. August 2011
Отчёт EAC об извлечении, выполненном 30. мая 2012, 11:26
Loren Mazzacane Connors , Jean-Marc Montera , Thurston Moore , Lee Ranaldo / Mmmr
Дисковод: ATAPI iHAS120 6 Adapter: 3 ID: 0
Режим чтения : Достоверность
Использование точного потока : Да
Отключение кэша аудио : Да
Использование указателей C2 : Нет
Коррекция смещения при чтении : 6
Способность читать области Lead-in и Lead-out : Нет
Заполнение пропущенных сэмплов тишиной : Да
Удаление блоков с тишиной в начале и конце : Нет
При вычислениях CRC использовались нулевые сэмплы : Да
Интерфейс : Встроенный Win32-интерфейс для Win NT/2000
Выходной формат : Пользовательский кодировщик
Выбранный битрейт : 768 kBit/s
Качество : Высокий
Добавление ID3-тега : Нет
Утилита сжатия : C:\Program Files (x86)\Exact Audio Copy\FLAC\FLAC.EXE
Дополнительные параметры : -6 -V -T "ARTIST=%artist%" -T "TITLE=%title%" -T "ALBUM=%albumtitle%" -T "DATE=%year%" -T "TRACKNUMBER=%tracknr%" -T "GENRE=%genre%" -T "COMMENT=%comment%" -T "BAND=%albuminterpret%" -T "ALBUMARTIST=%albuminterpret%" -T "COMPOSER=%composer%" %haslyrics%--tag-from-file=LYRICS="%lyricsfile%"%haslyrics% -T "DISCNUMBER=%cdnumber%" -T "TOTALDISCS=%totalcds%" -T "TOTALTRACKS=%numtracks%" %hascover%--picture="%coverfile%"%hascover% %source% -o %dest%
TOC извлечённого CD
Трек | Старт | Длительность | Начальный сектор | Конечный сектор
---------------------------------------------------------------------
1 | 0:00.00 | 11:11.37 | 0 | 50361
2 | 11:11.37 | 10:07.38 | 50362 | 95924
3 | 21:19.00 | 20:35.37 | 95925 | 188586
Характеристики диапазона извлечения и сообщения об ошибках
Выбранный диапазон
Имя файла C:\Users\Sergey\Downloads\MMMR\Loren Mazzacane Connors , Jean-Marc Montera , Thurston Moore , Lee Ranaldo - Mmmr.wav
Пиковый уровень 99.9 %
Скорость извлечения 7.5 X
Качество диапазона 100.0 %
CRC теста 1820C84F
CRC копии 1820C84F
Копирование... OK
Ошибок не произошло
AccurateRip: сводка
Трек 1 : извлечено точно (доверие 3) [0AC7C015] (AR v1)
Трек 2 : извлечено точно (доверие 3) [2B181406] (AR v1)
Трек 3 : извлечено точно (доверие 3) [48A9E23F] (AR v1)
Все треки извлечены точно
Конец отчёта
---- CUETools DB Plugin V2.1.3
[CTDB TOCID: VXmyr0B8gYo0VGQVnRjeWM.UGOg-] found, Submit result: VXmyr0B8gYo0VGQVnRjeWM.UGOg- has been confirmed
[74f68f71] (1/1) Accurately ripped
==== Контрольная сумма отчёта 078095133A553B72994B9F841860DD4CEBE9DA14EE1864C40AB8DAE8A0876F56 ====
Any questions -> support@pro-jazz.com. По всем вопросам пишите -> support@pro-jazz.com
01:15
92
Нет комментариев. Ваш будет первым!