Вы используете незарегистрированную версию компонента "Вкладки"!

Поиск

(Free Improvisation, Leo Records) WHO Trio (Michel Wintsch, Gerry Hemingway, Baenz Oester) - Identity - 1999, FLAC (tracks+.cue), lossless

(Free Improvisation, Leo Records) WHO Trio (Michel Wintsch, Gerry Hemingway, Baenz Oester) - Identity - 1999, FLAC (tracks+.cue), lossless
Треклист:
WHO Trio / Identity
Жанр: Free Improvisation, Leo Records
Страна-производитель диска: U.K.
Год издания: 1999
Издатель (лейбл): Leo Records
Номер по каталогу: CD LR 282
Аудиокодек: FLAC (*.flac)
Тип рипа: tracks+.cue
Битрейт аудио: lossless
Продолжительность: 58:39
Источник (релизер): Max Monteiro
Наличие сканов в содержимом раздачи: нет
Треклист:
01. Choucas 5:13
02. Anne-Marie S 6:05
03. Holy Mess (Bänz Oester) 4:36
04. Looking for Rest 5:41
05. NT (Gerry Hemingway) 4:24
06. Aime comme avant 4:51
07. For John Coltrane 5:58
08. Jeux d’intervalles 1:09
09. Who? (Gerry Hemingway & Michel Wintsch) 1:47
10. Esqseq 4:01
11. Link 2:44
12. Identity (Gerry Hemingway) 4:42
13. Driving Home (Bänz Oester) 7:28
All compositions by Michel Wintsch except where indicated.
Recorded at Studio du Flon, Lausanne, Switzerland.
Michel Wintsch – Piano
Gerry Hemingway – Drums
Bänz Oester – Bass
 
Лог создания рипа
Exact Audio Copy V1.0 beta 3 from 29. August 2011
EAC extraction logfile from 14. June 2013, 23:13
WHO Trio / Identity
Used drive : SlimtypeeNAU508 5 Adapter: 1 ID: 0
Read mode : Secure
Utilize accurate stream : Yes
Defeat audio cache : Yes
Make use of C2 pointers : No
Read offset correction : 6
Overread into Lead-In and Lead-Out : No
Fill up missing offset samples with silence : Yes
Delete leading and trailing silent blocks : No
Null samples used in CRC calculations : Yes
Used interface : Native Win32 interface for Win NT & 2000
Gap handling : Appended to previous track
Used output format : User Defined Encoder
Selected bitrate : 768 kBit/s
Quality : High
Add ID3 tag : No
Command line compressor : C:\Program Files (x86)\Exact Audio Copy\Flac\flac.exe
Additional command line options : -8 -V -T "ARTIST=%artist%" -T "TITLE=%title%" -T "ALBUM=%albumtitle%" -T "DATE=%year%" -T "TRACKNUMBER=%tracknr%" -T "GENRE=%genre%" -T "PERFORMER=%albuminterpret%" -T "COMPOSER=%composer%" %haslyrics%--tag-from-file=LYRICS="%lyricsfile%"%haslyrics% -T "ALBUMARTIST=%albumartist%" -T "DISCNUMBER=%cdnumber%" -T "TOTALDISCS=%totalcds%" -T "TOTALTRACKS=%numtracks%" -T "COMMENT=%comment%" %source% -o %dest%
TOC of the extracted CD
Track | Start | Length | Start sector | End sector
---------------------------------------------------------
1 | 0:00.01 | 5:13.01 | 1 | 23476
2 | 5:13.02 | 6:05.11 | 23477 | 50862
3 | 11:18.13 | 4:36.08 | 50863 | 71570
4 | 15:54.21 | 5:41.14 | 71571 | 97159
5 | 21:35.35 | 4:24.01 | 97160 | 116960
6 | 25:59.36 | 4:51.19 | 116961 | 138804
7 | 30:50.55 | 5:58.12 | 138805 | 165666
8 | 36:48.67 | 1:09.08 | 165667 | 170849
9 | 37:58.00 | 1:46.67 | 170850 | 178866
10 | 39:44.67 | 4:00.67 | 178867 | 196933
11 | 43:45.59 | 2:43.38 | 196934 | 209196
12 | 46:29.22 | 4:41.53 | 209197 | 230324
13 | 51:11.00 | 7:28.31 | 230325 | 263955
Track 1
Filename C:\EAC rips\01 - Choucas.wav
Pre-gap length 0:00:02.01
Peak level 100.0 %
Extraction speed 1.2 X
Track quality 100.0 %
Test CRC 644CA1B7
Copy CRC 644CA1B7
Accurately ripped (confidence 1) [00936FAC] (AR v1)
Copy OK
Track 2
Filename C:\EAC rips\02 - Anne-Marie S.wav
Peak level 87.3 %
Extraction speed 1.4 X
Track quality 100.0 %
Test CRC FDCB3DD1
Copy CRC FDCB3DD1
Accurately ripped (confidence 1) [BB448CFB] (AR v1)
Copy OK
Track 3
Filename C:\EAC rips\03 - Holy Mess.wav
Peak level 100.0 %
Extraction speed 1.5 X
Track quality 100.0 %
Test CRC E883845D
Copy CRC E883845D
Accurately ripped (confidence 1) [472AD677] (AR v1)
Copy OK
Track 4
Filename C:\EAC rips\04 - Looking for Rest.wav
Peak level 99.9 %
Extraction speed 1.6 X
Track quality 100.0 %
Test CRC 544C2CBB
Copy CRC 544C2CBB
Accurately ripped (confidence 1) [D940BBCF] (AR v1)
Copy OK
Track 5
Filename C:\EAC rips\05 - NT.wav
Peak level 100.0 %
Extraction speed 1.7 X
Track quality 100.0 %
Test CRC 593482E1
Copy CRC 593482E1
Accurately ripped (confidence 1) [91F68A1E] (AR v1)
Copy OK
Track 6
Filename C:\EAC rips\06 - Aime comme avant.wav
Peak level 77.7 %
Extraction speed 1.8 X
Track quality 100.0 %
Test CRC 64601F05
Copy CRC 64601F05
Accurately ripped (confidence 1) [CA5EE3DC] (AR v1)
Copy OK
Track 7
Filename C:\EAC rips\07 - For John Coltrane.wav
Peak level 99.9 %
Extraction speed 2.0 X
Track quality 100.0 %
Test CRC 7C4CB27D
Copy CRC 7C4CB27D
Accurately ripped (confidence 1) [F64D73B7] (AR v1)
Copy OK
Track 8
Filename C:\EAC rips\08 - Jeux d'intervalles.wav
Peak level 70.6 %
Extraction speed 1.4 X
Track quality 100.0 %
Test CRC 27CF1062
Copy CRC 27CF1062
Accurately ripped (confidence 1) [03803537] (AR v1)
Copy OK
Track 9
Filename C:\EAC rips\09 - Who_.wav
Peak level 75.4 %
Extraction speed 1.3 X
Track quality 99.9 %
Test CRC F880CC24
Copy CRC F880CC24
Accurately ripped (confidence 1) [60FE954E] (AR v1)
Copy OK
Track 10
Filename C:\EAC rips\10 - Esqseq.wav
Peak level 85.6 %
Extraction speed 2.0 X
Track quality 100.0 %
Test CRC 1DFF110C
Copy CRC 1DFF110C
Accurately ripped (confidence 1) [7C9F89D6] (AR v1)
Copy OK
Track 11
Filename C:\EAC rips\11 - Link.wav
Peak level 62.5 %
Extraction speed 1.9 X
Track quality 100.0 %
Test CRC C1A21BC5
Copy CRC C1A21BC5
Accurately ripped (confidence 1) [878A4525] (AR v1)
Copy OK
Track 12
Filename C:\EAC rips\12 - Identity.wav
Peak level 69.6 %
Extraction speed 2.2 X
Track quality 100.0 %
Test CRC 852D0441
Copy CRC 852D0441
Accurately ripped (confidence 1) [D836AD53] (AR v1)
Copy OK
Track 13
Filename C:\EAC rips\13 - Driving Home.wav
Peak level 100.0 %
Extraction speed 2.4 X
Track quality 100.0 %
Test CRC E7A7A1FB
Copy CRC E7A7A1FB
Accurately ripped (confidence 1) [FF3091CC] (AR v1)
Copy OK
All tracks accurately ripped
No errors occurred
End of status report
---- CUETools DB Plugin V2.1.4
[CTDB TOCID: XpvF1LTm_PWkCdgxODclMfmUIio-] disk not present in database
Submit result: XpvF1LTm_PWkCdgxODclMfmUIio- has been uploaded
==== Log checksum 3DD9EB555E560EECE0EF1197D331A79AB8D9FC6BD7F5411088D9786AD798621B ====
 
Содержание индексной карты (.CUE)
REM GENRE Jazz
REM DATE 1999
REM DISCID B20DBF0D
REM COMMENT "ExactAudioCopy v1.0b3"
PERFORMER "WHO Trio"
TITLE "Identity"
FILE "01 - Choucas.wav" WAVE
TRACK 01 AUDIO
TITLE "Choucas"
PERFORMER "WHO Trio"
FLAGS DCP
PREGAP 00:00:01
INDEX 01 00:00:00
FILE "02 - Anne-Marie S.wav" WAVE
TRACK 02 AUDIO
TITLE "Anne-Marie S"
PERFORMER "WHO Trio"
FLAGS DCP
INDEX 01 00:00:00
FILE "03 - Holy Mess.wav" WAVE
TRACK 03 AUDIO
TITLE "Holy Mess"
PERFORMER "WHO Trio"
INDEX 01 00:00:00
FILE "04 - Looking for Rest.wav" WAVE
TRACK 04 AUDIO
TITLE "Looking for Rest"
PERFORMER "WHO Trio"
FLAGS DCP
INDEX 01 00:00:00
FILE "05 - NT.wav" WAVE
TRACK 05 AUDIO
TITLE "NT"
PERFORMER "WHO Trio"
FLAGS DCP
INDEX 01 00:00:00
FILE "06 - Aime comme avant.wav" WAVE
TRACK 06 AUDIO
TITLE "Aime comme avant"
PERFORMER "WHO Trio"
FLAGS DCP
INDEX 01 00:00:00
FILE "07 - For John Coltrane.wav" WAVE
TRACK 07 AUDIO
TITLE "For John Coltrane"
PERFORMER "WHO Trio"
FLAGS DCP
INDEX 01 00:00:00
FILE "08 - Jeux d'intervalles.wav" WAVE
TRACK 08 AUDIO
TITLE "Jeux d'intervalles"
PERFORMER "WHO Trio"
FLAGS DCP
INDEX 01 00:00:00
FILE "09 - Who_.wav" WAVE
TRACK 09 AUDIO
TITLE "Who?"
PERFORMER "WHO Trio"
FLAGS DCP
INDEX 01 00:00:00
FILE "10 - Esqseq.wav" WAVE
TRACK 10 AUDIO
TITLE "Esqseq"
PERFORMER "WHO Trio"
FLAGS DCP
INDEX 01 00:00:00
FILE "11 - Link.wav" WAVE
TRACK 11 AUDIO
TITLE "Link"
PERFORMER "WHO Trio"
FLAGS DCP
INDEX 01 00:00:00
FILE "12 - Identity.wav" WAVE
TRACK 12 AUDIO
TITLE "Identity"
PERFORMER "WHO Trio"
FLAGS DCP
INDEX 01 00:00:00
FILE "13 - Driving Home.wav" WAVE
TRACK 13 AUDIO
TITLE "Driving Home"
PERFORMER "WHO Trio"
FLAGS DCP
INDEX 01 00:00:00
Any questions -> support@pro-jazz.com. По всем вопросам пишите -> support@pro-jazz.com
15:44
174
Нет комментариев. Ваш будет первым!