Вы используете незарегистрированную версию компонента "Вкладки"!

Поиск

(Free Improvisation) Lemur - Aigean - 2010, FLAC (tracks+.cue) lossless

Треклист:
Lemur / Aigéan
Жанр: Free Improvisation
Страна-производитель диска: Норвегия
Год издания диска: 2010
Издатель (лейбл): +3db Records
Номер по каталогу: +3DB011
Страна: Норвегия
Аудио кодек: FLAC (*.flac)
Тип рипа: tracks+.cue
Битрейт аудио: lossless
Продолжительность: 39:15
Источник (релизер): вот.сиди (merzbow1974 )
Наличие сканов в содержимом раздачи: да
Треклист:
1 Dasht - E Lut
2 Panthalassa
3 Betpak–Dala
4 Imbrium
5 Dzibilchaltun
6 Saragasso
7 Kriznajama
 
Лог создания рипа
Exact Audio Copy V0.99 prebeta 5 from 4. May 2009
EAC extraction logfile from 16. November 2010, 22:44
Unknown Artist / Unknown Title
Used drive : Optiarc DVD RW AD-7240S Adapter: 4 ID: 0
Read mode : Secure
Utilize accurate stream : Yes
Defeat audio cache : Yes
Make use of C2 pointers : No
Read offset correction : 48
Overread into Lead-In and Lead-Out : No
Fill up missing offset samples with silence : Yes
Delete leading and trailing silent blocks : No
Null samples used in CRC calculations : Yes
Used interface : Installed external ASPI interface
Gap handling : Appended to previous track
Used output format : User Defined Encoder
Selected bitrate : 128 kBit/s
Quality : High
Add ID3 tag : Yes
Command line compressor : C:\Programmi\Exact Audio Copy\Flac\flac.exe
Additional command line options : -V -8 -T "artist=%a" -T "title=%t" -T "album=%g" -T "date=%y" -T "tracknumber=%n" -T "genre=%m" %s
TOC of the extracted CD
Track | Start | Length | Start sector | End sector
---------------------------------------------------------
1 | 0:00.00 | 7:39.02 | 0 | 34426
2 | 7:39.02 | 6:18.71 | 34427 | 62847
3 | 13:57.73 | 3:38.52 | 62848 | 79249
4 | 17:36.50 | 2:54.21 | 79250 | 92320
5 | 20:30.71 | 10:08.01 | 92321 | 137921
6 | 30:38.72 | 5:52.22 | 137922 | 164343
7 | 36:31.19 | 2:44.13 | 164344 | 176656
Track 1
Filename D:\Lemur - Aigйan - 2010\01 Track01.wav
Pre-gap length 0:00:02.00
Peak level 98.5 %
Track quality 100.0 %
Test CRC 172D233D
Copy CRC 172D233D
Track not present in AccurateRip database
Copy OK
Track 2
Filename D:\Lemur - Aigйan - 2010\02 Track02.wav
Peak level 98.6 %
Track quality 100.0 %
Test CRC BB11293F
Copy CRC BB11293F
Track not present in AccurateRip database
Copy OK
Track 3
Filename D:\Lemur - Aigйan - 2010\03 Track03.wav
Peak level 98.6 %
Track quality 100.0 %
Test CRC BFA471A4
Copy CRC BFA471A4
Track not present in AccurateRip database
Copy OK
Track 4
Filename D:\Lemur - Aigйan - 2010\04 Track04.wav
Peak level 30.2 %
Track quality 100.0 %
Test CRC 270CA242
Copy CRC 270CA242
Track not present in AccurateRip database
Copy OK
Track 5
Filename D:\Lemur - Aigйan - 2010\05 Track05.wav
Peak level 99.0 %
Track quality 99.9 %
Test CRC B70EE33E
Copy CRC B70EE33E
Track not present in AccurateRip database
Copy OK
Track 6
Filename D:\Lemur - Aigйan - 2010\06 Track06.wav
Peak level 95.8 %
Track quality 99.9 %
Test CRC 15ED7B43
Copy CRC 15ED7B43
Track not present in AccurateRip database
Copy OK
Track 7
Filename D:\Lemur - Aigйan - 2010\07 Track07.wav
Pre-gap length 0:00:02.00
Peak level 98.8 %
Track quality 100.0 %
Test CRC 4E84DEE4
Copy CRC 4E84DEE4
Track not present in AccurateRip database
Copy OK
None of the tracks are present in the AccurateRip database
No errors occurred
End of status report
 
Содержание индексной карты (.CUE)
REM DISCID 53093307
REM COMMENT "ExactAudioCopy v0.99pb5"
FILE "01 Track01.wav" WAVE
TRACK 01 AUDIO
INDEX 01 00:00:00
FILE "02 Track02.wav" WAVE
TRACK 02 AUDIO
INDEX 01 00:00:00
FILE "03 Track03.wav" WAVE
TRACK 03 AUDIO
INDEX 01 00:00:00
FILE "04 Track04.wav" WAVE
TRACK 04 AUDIO
INDEX 01 00:00:00
FILE "05 Track05.wav" WAVE
TRACK 05 AUDIO
INDEX 01 00:00:00
FILE "06 Track06.wav" WAVE
TRACK 06 AUDIO
INDEX 01 00:00:00
TRACK 07 AUDIO
INDEX 00 05:50:22
FILE "07 Track07.wav" WAVE
INDEX 01 00:00:00
 
Лог проверки качества
AUDIOCHECKER v2.0 beta (build 457) - by Dester - opdester@freemail.hu
~~~~~~~~~~~~~~~~~~~~~~~~~~~~~~~~~~
-=== DO NOT EDIT THIS FILE! ===-
Path: ...\Lemur - Aigean - 2010
1 -=- 01 Dasht - E Lut.flac -=- CDDA (100%)
2 -=- 02 Panthalassa.flac -=- CDDA (100%)
3 -=- 03 Betpak-Dala.flac -=- CDDA (100%)
4 -=- 04 Imbrium.flac -=- CDDA (99%)
5 -=- 05 Dzibilchaltun.flac -=- CDDA (100%)
6 -=- 06 Saragasso.flac -=- CDDA (100%)
7 -=- 07 Kriznajama.flac -=- CDDA (100%)
Summary 99,86% CDDA
38923380
 
Состав
Lene Grenager сello
Michael Francis Duch double bass
Bjørnar Habbestad flute
Hild Sofie Tafjord horn
Any questions -> support@pro-jazz.com. По всем вопросам пишите -> support@pro-jazz.com
05:38
168
Нет комментариев. Ваш будет первым!