Вы используете незарегистрированную версию компонента "Вкладки"!

Поиск

(Free Improvisation) Kieran Hebden / Steve Reid‎ / Mats Gustafsson - Live At The South Bank - 2011, FLAC (tracks+.cue), lossless

(Free Improvisation) Kieran Hebden / Steve Reid‎ / Mats Gustafsson - Live At The South Bank - 2011, FLAC (tracks+.cue), lossless
Треклист:
Kieran Hebden / Steve Reid‎ / Mats Gustafsson / Live At The South Bank
Жанр: Free Improvisation
Страна-производитель диска: Норвегия
Год издания диска: 2011
Издатель (лейбл): Smalltown Superjazzz
Номер по каталогу: STSJ211
Страна: Великобритания, США, Швеция
Аудиокодек: FLAC (*.flac)
Тип рипа: tracks+.cue
Битрейт аудио: lossless
Продолжительность: 1:22:58
Источник (релизер): вот.сиди (coonhound)
Наличие сканов в содержимом раздачи: нет
Треклист:
Disc 1:
01 Morning Prayer
02 Lyman Place
03 People Be Happy
Disc 2:
01 Untitled
02 25th Street
03 The Sun Never Sets
recorded on the 20th June 2009
 
Лог создания рипа
Exact Audio Copy V0.99 prebeta 5 from 4. May 2009
EAC extraction logfile from 11. November 2011, 10:33
Kieran Hebden/Steve Reid/Mats Gustafsson / Live at the South Bank
Used drive : hp DVDRAM GT20L Adapter: 0 ID: 1
Read mode : Secure
Utilize accurate stream : Yes
Defeat audio cache : Yes
Make use of C2 pointers : No
Read offset correction : 667
Overread into Lead-In and Lead-Out : No
Fill up missing offset samples with silence : Yes
Delete leading and trailing silent blocks : No
Null samples used in CRC calculations : Yes
Used interface : Native Win32 interface for Win NT & 2000
Gap handling : Appended to previous track
Used output format : User Defined Encoder
Selected bitrate : 128 kBit/s
Quality : High
Add ID3 tag : No
Command line compressor : C:\Program Files\Exact Audio Copy\Flac\flac.exe
Additional command line options : -V -8 -T "artist=%a" -T "title=%t" -T "album=%g" -T "date=%y" -T "tracknumber=%n" -T "genre=%m" %s
TOC of the extracted CD
Track | Start | Length | Start sector | End sector
---------------------------------------------------------
1 | 0:00.00 | 17:14.60 | 0 | 77609
2 | 17:14.60 | 8:52.57 | 77610 | 117566
3 | 26:07.42 | 15:48.21 | 117567 | 188687
Track 1
Filename C:\EACrips\Kieran Hebden,Steve Reid,Mats Gustafsson - 2011 - Live at the South Bank\01 - Morning Prayer.wav
Pre-gap length 0:00:02.00
Peak level 99.9 %
Track quality 100.0 %
Test CRC CB43D985
Copy CRC CB43D985
Track not present in AccurateRip database
Copy OK
Track 2
Filename C:\EACrips\Kieran Hebden,Steve Reid,Mats Gustafsson - 2011 - Live at the South Bank\02 - Lyman Place.wav
Peak level 99.9 %
Track quality 100.0 %
Test CRC CD494E5B
Copy CRC CD494E5B
Track not present in AccurateRip database
Copy OK
Track 3
Filename C:\EACrips\Kieran Hebden,Steve Reid,Mats Gustafsson - 2011 - Live at the South Bank\03 - People Be Happy.wav
Peak level 99.9 %
Track quality 100.0 %
Test CRC E0D19B3E
Copy CRC E0D19B3E
Track not present in AccurateRip database
Copy OK
None of the tracks are present in the AccurateRip database
No errors occurred
End of status report


Exact Audio Copy V0.99 prebeta 5 from 4. May 2009
EAC extraction logfile from 11. November 2011, 11:03
Kieran Hebden/Steve Reid/Mats Gustafsson / Live at the South Bank
Used drive : hp DVDRAM GT20L Adapter: 0 ID: 1
Read mode : Secure
Utilize accurate stream : Yes
Defeat audio cache : Yes
Make use of C2 pointers : No
Read offset correction : 667
Overread into Lead-In and Lead-Out : No
Fill up missing offset samples with silence : Yes
Delete leading and trailing silent blocks : No
Null samples used in CRC calculations : Yes
Used interface : Native Win32 interface for Win NT & 2000
Gap handling : Appended to previous track
Used output format : User Defined Encoder
Selected bitrate : 128 kBit/s
Quality : High
Add ID3 tag : No
Command line compressor : C:\Program Files\Exact Audio Copy\Flac\flac.exe
Additional command line options : -V -8 -T "artist=%a" -T "title=%t" -T "album=%g" -T "date=%y" -T "tracknumber=%n" -T "genre=%m" %s
TOC of the extracted CD
Track | Start | Length | Start sector | End sector
---------------------------------------------------------
1 | 0:00.00 | 12:22.28 | 0 | 55677
2 | 12:22.28 | 12:18.22 | 55678 | 111049
3 | 24:40.50 | 16:21.21 | 111050 | 184645
Track 1
Filename C:\EACrips\Kieran Hebden,Steve Reid,Mats Gustafsson - 2011 - Live at the South Bank\01 - Untitled.wav
Pre-gap length 0:00:02.00
Peak level 99.9 %
Track quality 100.0 %
Test CRC 192883A0
Copy CRC 192883A0
Track not present in AccurateRip database
Copy OK
Track 2
Filename C:\EACrips\Kieran Hebden,Steve Reid,Mats Gustafsson - 2011 - Live at the South Bank\02 - 25th Street.wav
Peak level 99.9 %
Track quality 100.0 %
Test CRC 573AEE25
Copy CRC 573AEE25
Track not present in AccurateRip database
Copy OK
Track 3
Filename C:\EACrips\Kieran Hebden,Steve Reid,Mats Gustafsson - 2011 - Live at the South Bank\03 - The Sun Never Sets.wav
Peak level 99.9 %
Track quality 99.9 %
Test CRC ACC3F255
Copy CRC ACC3F255
Track not present in AccurateRip database
Copy OK
None of the tracks are present in the AccurateRip database
No errors occurred
End of status report
 
Содержание индексной карты (.CUE)
REM DATE 2011
REM DISCID 2109D303
REM COMMENT "ExactAudioCopy v0.99pb5"
FILE "01 - Morning Prayer.wav" WAVE
TRACK 01 AUDIO
INDEX 01 00:00:00
FILE "02 - Lyman Place.wav" WAVE
TRACK 02 AUDIO
INDEX 01 00:00:00
FILE "03 - People Be Happy.wav" WAVE
TRACK 03 AUDIO
INDEX 01 00:00:00


REM DATE 2011
REM DISCID 20099D03
REM COMMENT "ExactAudioCopy v0.99pb5"
FILE "01 - Untitled.wav" WAVE
TRACK 01 AUDIO
INDEX 01 00:00:00
FILE "02 - 25th Street.wav" WAVE
TRACK 02 AUDIO
INDEX 01 00:00:00
FILE "03 - The Sun Never Sets.wav" WAVE
TRACK 03 AUDIO
INDEX 01 00:00:00
 
Лог проверки качества
AUDIOCHECKER v2.0 beta (build 457) - by Dester - opdester@freemail.hu
~~~~~~~~~~~~~~~~~~~~~~~~~~~~~~~~~~
-=== DO NOT EDIT THIS FILE! ===-
Path: ...\Disc 1
1 -=- 01 - Morning Prayer.flac -=- CDDA (100%)
2 -=- 02 - Lyman Place.flac -=- CDDA (100%)
3 -=- 03 - People Be Happy.flac -=- CDDA (100%)
Summary 100,00% CDDA
258975524


AUDIOCHECKER v2.0 beta (build 457) - by Dester - opdester@freemail.hu
~~~~~~~~~~~~~~~~~~~~~~~~~~~~~~~~~~
-=== DO NOT EDIT THIS FILE! ===-
Path: ...\Disc 2
1 -=- 01 - Untitled.flac -=- CDDA (100%)
2 -=- 02 - 25th Street.flac -=- CDDA (100%)
3 -=- 03 - The Sun Never Sets.flac -=- CDDA (100%)
Summary 100,00% CDDA
118865332
 
Состав
Kieran Hebden, electronics
Steve Reid, percussion
Mats Gustafsson, reeds
Any questions -> support@pro-jazz.com. По всем вопросам пишите -> support@pro-jazz.com
18:20
184
Нет комментариев. Ваш будет первым!