Вы используете незарегистрированную версию компонента "Вкладки"!

Поиск

(Free Improvisation) 阿部薫 (Kaoru Abe) - またの日の夢物語 (Another Day's Dream). solo 1972.1.21 - 1994, FLAC (tracks+.cue), lossless

Треклист:
阿部薫 - またの日の夢物語
Kaoru Abe - Another Day's Dream
solo 1972.1.21
Жанр: Free Improvisation
Страна-производитель диска: Япония
Год издания диска: 1994
Издатель (лейбл): P.S.F. Records
Номер по каталогу: PSFD-40
Страна: Япония
Аудиокодек: FLAC (*.flac)
Тип рипа: tracks+.cue
Битрейт аудио: lossless
Продолжительность: 50:44
Источник (релизер): вот.сиди (Avarance)
Наличие сканов в содержимом раздачи: нет
Треклист:
1 1972.1.21. Alto 1 (8:31)
2 1972.1.21. Alto 2 (12:52)
3 1972.1.21. Bcl 1 (18:28)
4 1972.1.21. Alto 3 (10:53)
 
Лог создания рипа
Exact Audio Copy V0.99 prebeta 5 from 4. May 2009
EAC extraction logfile from 4. June 2011, 21:12
阿部薫 / またの日の夢物語
Used drive : HL-DT-STDVDRAM GT30N Adapter: 0 ID: 0
Read mode : Secure
Utilize accurate stream : Yes
Defeat audio cache : Yes
Make use of C2 pointers : No
Read offset correction : 103
Overread into Lead-In and Lead-Out : No
Fill up missing offset samples with silence : Yes
Delete leading and trailing silent blocks : No
Null samples used in CRC calculations : Yes
Used interface : Native Win32 interface for Win NT & 2000
Gap handling : Appended to previous track
Used output format : L3Enc MP3 Encoder & Compatible
Selected bitrate : 320 kBit/s (Not available for all encoder)
Quality : High
Add ID3 tag : No
Command line compressor : C:\Program Files (x86)\Exact Audio Copy\Flac\flac.exe
Additional command line options : -8 -T "artist=%a" -T "title=%t" -T "album=%g" -T "date=%y" -T "tracknumber=%n" -T "genre=%m" %s
TOC of the extracted CD
Track | Start | Length | Start sector | End sector
---------------------------------------------------------
1 | 0:00.00 | 8:31.10 | 0 | 38334
2 | 8:31.10 | 12:51.40 | 38335 | 96199
3 | 21:22.50 | 18:28.02 | 96200 | 179301
4 | 39:50.52 | 10:52.63 | 179302 | 228264
Track 1
Filename C:\EACRips\阿部薫 - 1972 - またの日の夢物語\01 - 1972.1.21 Alto 1.wav
Pre-gap length 0:00:02.00
Peak level 100.0 %
Track quality 100.0 %
Test CRC 9D4737BA
Copy CRC 9D4737BA
Cannot be verified as accurate (confidence 2) [1893F36B], AccurateRip returned [AE5E6053]
Copy OK
Track 2
Filename C:\EACRips\阿部薫 - 1972 - またの日の夢物語\02 - 1972.1.21 Alto 2.wav
Pre-gap length 0:00:02.00
Peak level 96.9 %
Track quality 100.0 %
Test CRC 3C0E395B
Copy CRC 3C0E395B
Cannot be verified as accurate (confidence 2) [88B0BF22], AccurateRip returned [96C61596]
Copy OK
Track 3
Filename C:\EACRips\阿部薫 - 1972 - またの日の夢物語\03 - 1972.1.21 Bcl 1.wav
Pre-gap length 0:00:02.50
Peak level 94.7 %
Track quality 100.0 %
Test CRC 966B632F
Copy CRC 966B632F
Cannot be verified as accurate (confidence 2) [123BB970], AccurateRip returned [8C7F7C00]
Copy OK
Track 4
Filename C:\EACRips\阿部薫 - 1972 - またの日の夢物語\04 - 1972.1.21 Alto 3.wav
Pre-gap length 0:00:02.00
Peak level 97.4 %
Track quality 99.9 %
Test CRC C8F9A862
Copy CRC C8F9A862
Cannot be verified as accurate (confidence 2) [3465CDF1], AccurateRip returned [3538D151]
Copy OK
No tracks could be verified as accurate
You may have a different pressing from the one(s) in the database
No errors occurred
End of status report
 
Содержание индексной карты (.CUE)
REM GENRE Jazz
REM DATE 1972
REM DISCID 2A0BE304
REM COMMENT "ExactAudioCopy v0.99pb5"
FILE "Kaoru Abe - 1972 - Solo.1972.1.21\01 - 1972.1.21 Alto 1.wav" WAVE
TRACK 01 AUDIO
INDEX 01 00:00:00
TRACK 02 AUDIO
INDEX 00 08:29:10
FILE "Kaoru Abe - 1972 - Solo.1972.1.21\02 - 1972.1.21 Alto 2.wav" WAVE
INDEX 01 00:00:00
TRACK 03 AUDIO
INDEX 00 12:49:02
FILE "Kaoru Abe - 1972 - Solo.1972.1.21\03 - 1972.1.21 Bcl 1.wav" WAVE
INDEX 01 00:00:00
TRACK 04 AUDIO
INDEX 00 18:26:02
FILE "Kaoru Abe - 1972 - Solo.1972.1.21\04 - 1972.1.21 Alto 3.wav" WAVE
INDEX 01 00:00:00
 
Лог проверки качества
AUDIOCHECKER v2.0 beta (build 457) - by Dester - opdester@freemail.hu
~~~~~~~~~~~~~~~~~~~~~~~~~~~~~~~~~~
-=== DO NOT EDIT THIS FILE! ===-
Path: ...\Kaoru Abe - Matanohi no yumemonogatari
1 -=- 01 - 1972.1.21 Alto 1.flac -=- CDDA (100%)
2 -=- 02 - 1972.1.21 Alto 2.flac -=- CDDA (100%)
3 -=- 03 - 1972.1.21 Bcl 1.flac -=- CDDA (100%)
4 -=- 04 - 1972.1.21 Alto 3.flac -=- CDDA (100%)
Summary 100,00% CDDA
179391620
 
Состав
Kaoru Abe alto saxophone, bass clarinet
Any questions -> support@pro-jazz.com. По всем вопросам пишите -> support@pro-jazz.com
13:10
212
Нет комментариев. Ваш будет первым!