Вы используете незарегистрированную версию компонента "Вкладки"!

Поиск

(Free Improvisation) Julien Pinol Trio - We Free - 1999, FLAC (tracks+.cue), lossless

(Free Improvisation) Julien Pinol Trio - We Free - 1999, FLAC (tracks+.cue), lossless
Треклист:
Julien Pinol Trio / We Free
Жанр: Free Improvisation
Страна-производитель диска: Switzerland
Год издания: 1999
Издатель (лейбл): Doron Jazz
Номер по каталогу: DRJ 1002
Аудиокодек: FLAC (*.flac)
Тип рипа: tracks+.cue
Битрейт аудио: lossless
Продолжительность: 48:43
Источник (релизер): Max Monteiro
Наличие сканов в содержимом раздачи: нет
Треклист:
01. Decklin 6:43
02. Au pôle Chambers 4:52
03. Padam Padam (Henri Contet / Norbert Glanzberg) 3:07
04. Tom Simpson 4:49
05. Voyage à MX 28 5:43
06. Usual Standard from Jupiter 1:46
07. Tom Simpson Again 0:43
08. L’eau rince branle 4:11
09. Cloud of Eiderdown 0:50
10. Blues Is Killing Me 3:53
11. Old Planets 3:45
12. Discours & derniers vers 2:57
13. Bizarre Bizarre 2:59
14. Sophisticated Lady (Duke Ellington) 2:03
15. That Mean Old Train 1:30
All songs composed by Julien Pinol except where indicated.
Recording made on December 7, 1998 at the Conservatoire de Genève. No overdubs.
Julien Pinol – Guitar, Contrabass, Little Flute
Ryan Oliver – Soprano and Tenor Saxophones, Flute
Robbie Kuster – Drums
Pete Ehrnrooth – Bass Clarinet on 4, 6, 7, 8 & 13.
 
Лог создания рипа
Exact Audio Copy V1.0 beta 3 from 29. August 2011
EAC extraction logfile from 16. June 2013, 17:50
Julien Pinol Trio / We Free
Used drive : SlimtypeeNAU508 5 Adapter: 1 ID: 0
Read mode : Secure
Utilize accurate stream : Yes
Defeat audio cache : Yes
Make use of C2 pointers : No
Read offset correction : 6
Overread into Lead-In and Lead-Out : No
Fill up missing offset samples with silence : Yes
Delete leading and trailing silent blocks : No
Null samples used in CRC calculations : Yes
Used interface : Native Win32 interface for Win NT & 2000
Gap handling : Appended to previous track
Used output format : User Defined Encoder
Selected bitrate : 768 kBit/s
Quality : High
Add ID3 tag : No
Command line compressor : C:\Program Files (x86)\Exact Audio Copy\Flac\flac.exe
Additional command line options : -8 -V -T "ARTIST=%artist%" -T "TITLE=%title%" -T "ALBUM=%albumtitle%" -T "DATE=%year%" -T "TRACKNUMBER=%tracknr%" -T "GENRE=%genre%" -T "PERFORMER=%albuminterpret%" -T "COMPOSER=%composer%" %haslyrics%--tag-from-file=LYRICS="%lyricsfile%"%haslyrics% -T "ALBUMARTIST=%albumartist%" -T "DISCNUMBER=%cdnumber%" -T "TOTALDISCS=%totalcds%" -T "TOTALTRACKS=%numtracks%" -T "COMMENT=%comment%" %source% -o %dest%
TOC of the extracted CD
Track | Start | Length | Start sector | End sector
---------------------------------------------------------
1 | 0:00.00 | 6:43.36 | 0 | 30260
2 | 6:43.36 | 4:51.69 | 30261 | 52154
3 | 11:35.30 | 3:06.49 | 52155 | 66153
4 | 14:42.04 | 4:48.52 | 66154 | 87805
5 | 19:30.56 | 5:42.40 | 87806 | 113495
6 | 25:13.21 | 1:45.45 | 113496 | 121415
7 | 26:58.66 | 0:42.56 | 121416 | 124621
8 | 27:41.47 | 4:11.05 | 124622 | 143451
9 | 31:52.52 | 0:49.57 | 143452 | 147183
10 | 32:42.34 | 3:53.34 | 147184 | 164692
11 | 36:35.68 | 3:45.04 | 164693 | 181571
12 | 40:20.72 | 2:57.09 | 181572 | 194855
13 | 43:18.06 | 2:58.57 | 194856 | 208262
14 | 46:16.63 | 2:03.33 | 208263 | 217520
15 | 48:20.21 | 1:29.53 | 217521 | 224248
Track 1
Filename C:\EAC rips\01 - Decklin.wav
Pre-gap length 0:00:02.00
Peak level 64.5 %
Extraction speed 1.2 X
Track quality 100.0 %
Test CRC 1C84026D
Copy CRC 1C84026D
Track not present in AccurateRip database
Copy OK
Track 2
Filename C:\EAC rips\02 - Au pôle Chambers.wav
Pre-gap length 0:00:04.45
Peak level 65.4 %
Extraction speed 1.3 X
Track quality 100.0 %
Test CRC 77B93242
Copy CRC 77B93242
Track not present in AccurateRip database
Copy OK
Track 3
Filename C:\EAC rips\03 - Padam Padam.wav
Pre-gap length 0:00:04.45
Peak level 57.4 %
Extraction speed 1.3 X
Track quality 100.0 %
Test CRC B7CA6A0D
Copy CRC B7CA6A0D
Track not present in AccurateRip database
Copy OK
Track 4
Filename C:\EAC rips\04 - Tom Simpson.wav
Pre-gap length 0:00:04.45
Peak level 72.9 %
Extraction speed 1.5 X
Track quality 100.0 %
Test CRC 37F07820
Copy CRC 37F07820
Track not present in AccurateRip database
Copy OK
Track 5
Filename C:\EAC rips\05 - Voyage à MX 28.wav
Pre-gap length 0:00:04.45
Peak level 73.5 %
Extraction speed 1.6 X
Track quality 100.0 %
Test CRC 94625BAF
Copy CRC 94625BAF
Track not present in AccurateRip database
Copy OK
Track 6
Filename C:\EAC rips\06 - Usual Standard from Jupiter.wav
Pre-gap length 0:00:04.45
Peak level 77.9 %
Extraction speed 1.1 X
Track quality 99.8 %
Test CRC 1788BD4F
Copy CRC 1788BD4F
Track not present in AccurateRip database
Copy OK
Track 7
Filename C:\EAC rips\07 - Tom Simpson Again.wav
Peak level 80.1 %
Extraction speed 1.0 X
Track quality 100.0 %
Test CRC B19DE650
Copy CRC B19DE650
Track not present in AccurateRip database
Copy OK
Track 8
Filename C:\EAC rips\08 - L'eau rince branle.wav
Pre-gap length 0:00:04.45
Peak level 74.3 %
Extraction speed 1.7 X
Track quality 100.0 %
Test CRC 580913D8
Copy CRC 580913D8
Track not present in AccurateRip database
Copy OK
Track 9
Filename C:\EAC rips\09 - Cloud of Eiderdown.wav
Pre-gap length 0:00:04.45
Peak level 22.8 %
Extraction speed 0.8 X
Track quality 99.7 %
Test CRC 25099010
Copy CRC 25099010
Track not present in AccurateRip database
Copy OK
Track 10
Filename C:\EAC rips\10 - Blues Is Killing Me.wav
Pre-gap length 0:00:04.45
Peak level 61.2 %
Extraction speed 1.8 X
Track quality 100.0 %
Test CRC F8130B38
Copy CRC F8130B38
Track not present in AccurateRip database
Copy OK
Track 11
Filename C:\EAC rips\11 - Old Planets.wav
Pre-gap length 0:00:04.45
Peak level 76.1 %
Extraction speed 1.9 X
Track quality 100.0 %
Test CRC C29E4E7C
Copy CRC C29E4E7C
Track not present in AccurateRip database
Copy OK
Track 12
Filename C:\EAC rips\12 - Discours & derniers vers.wav
Pre-gap length 0:00:04.45
Peak level 66.4 %
Extraction speed 1.8 X
Track quality 100.0 %
Test CRC F7098DB6
Copy CRC F7098DB6
Track not present in AccurateRip database
Copy OK
Track 13
Filename C:\EAC rips\13 - Bizarre Bizarre.wav
Pre-gap length 0:00:04.45
Peak level 65.1 %
Extraction speed 1.9 X
Track quality 100.0 %
Test CRC 2FA41159
Copy CRC 2FA41159
Track not present in AccurateRip database
Copy OK
Track 14
Filename C:\EAC rips\14 - Sophisticated Lady.wav
Pre-gap length 0:00:04.45
Peak level 54.5 %
Extraction speed 1.8 X
Track quality 100.0 %
Test CRC 08AE1931
Copy CRC 08AE1931
Track not present in AccurateRip database
Copy OK
Track 15
Filename C:\EAC rips\15 - That Mean Old Train.wav
Pre-gap length 0:00:04.45
Peak level 74.8 %
Extraction speed 1.6 X
Track quality 100.0 %
Test CRC D31A04F7
Copy CRC D31A04F7
Track not present in AccurateRip database
Copy OK
None of the tracks are present in the AccurateRip database
No errors occurred
End of status report
---- CUETools DB Plugin V2.1.4
[CTDB TOCID: WAHUaulvak8F91bi56YYN_l9KY8-] disk not present in database
Submit result: WAHUaulvak8F91bi56YYN_l9KY8- has been uploaded
==== Log checksum 716A38F115C09DB4D7617106D8F6887A4EA18C97509D425FFBBAB0CC739CE370 ====
 
Содержание индексной карты (.CUE)
REM GENRE Jazz
REM DATE 1999
REM DISCID D20BAD0F
REM COMMENT "ExactAudioCopy v1.0b3"
PERFORMER "Julien Pinol Trio"
TITLE "We Free"
FILE "01 - Decklin.wav" WAVE
TRACK 01 AUDIO
TITLE "Decklin"
PERFORMER "Julien Pinol Trio"
FLAGS DCP
INDEX 01 00:00:00
TRACK 02 AUDIO
TITLE "Au pôle Chambers"
PERFORMER "Julien Pinol Trio"
FLAGS DCP
INDEX 00 06:38:66
FILE "02 - Au pôle Chambers.wav" WAVE
INDEX 01 00:00:00
TRACK 03 AUDIO
TITLE "Padam Padam"
PERFORMER "Julien Pinol Trio"
FLAGS DCP
INDEX 00 04:47:24
FILE "03 - Padam Padam.wav" WAVE
INDEX 01 00:00:00
TRACK 04 AUDIO
TITLE "Tom Simpson"
PERFORMER "Julien Pinol Trio"
FLAGS DCP
INDEX 00 03:02:04
FILE "04 - Tom Simpson.wav" WAVE
INDEX 01 00:00:00
TRACK 05 AUDIO
TITLE "Voyage à MX 28"
PERFORMER "Julien Pinol Trio"
FLAGS DCP
INDEX 00 04:44:07
FILE "05 - Voyage à MX 28.wav" WAVE
INDEX 01 00:00:00
TRACK 06 AUDIO
TITLE "Usual Standard from Jupiter"
PERFORMER "Julien Pinol Trio"
FLAGS DCP
INDEX 00 05:37:70
FILE "06 - Usual Standard from Jupiter.wav" WAVE
INDEX 01 00:00:00
FILE "07 - Tom Simpson Again.wav" WAVE
TRACK 07 AUDIO
TITLE "Tom Simpson Again"
PERFORMER "Julien Pinol Trio"
FLAGS DCP
INDEX 01 00:00:00
TRACK 08 AUDIO
TITLE "L'eau rince branle"
PERFORMER "Julien Pinol Trio"
FLAGS DCP
INDEX 00 00:38:11
FILE "08 - L'eau rince branle.wav" WAVE
INDEX 01 00:00:00
TRACK 09 AUDIO
TITLE "Cloud of Eiderdown"
PERFORMER "Julien Pinol Trio"
FLAGS DCP
INDEX 00 04:06:35
FILE "09 - Cloud of Eiderdown.wav" WAVE
INDEX 01 00:00:00
TRACK 10 AUDIO
TITLE "Blues Is Killing Me"
PERFORMER "Julien Pinol Trio"
FLAGS DCP
INDEX 00 00:45:12
FILE "10 - Blues Is Killing Me.wav" WAVE
INDEX 01 00:00:00
TRACK 11 AUDIO
TITLE "Old Planets"
PERFORMER "Julien Pinol Trio"
FLAGS DCP
INDEX 00 03:48:64
FILE "11 - Old Planets.wav" WAVE
INDEX 01 00:00:00
TRACK 12 AUDIO
TITLE "Discours & derniers vers"
PERFORMER "Julien Pinol Trio"
FLAGS DCP
INDEX 00 03:40:34
FILE "12 - Discours & derniers vers.wav" WAVE
INDEX 01 00:00:00
TRACK 13 AUDIO
TITLE "Bizarre Bizarre"
PERFORMER "Julien Pinol Trio"
FLAGS DCP
INDEX 00 02:52:39
FILE "13 - Bizarre Bizarre.wav" WAVE
INDEX 01 00:00:00
TRACK 14 AUDIO
TITLE "Sophisticated Lady"
PERFORMER "Julien Pinol Trio"
FLAGS DCP
INDEX 00 02:54:12
FILE "14 - Sophisticated Lady.wav" WAVE
INDEX 01 00:00:00
TRACK 15 AUDIO
TITLE "That Mean Old Train"
PERFORMER "Julien Pinol Trio"
FLAGS DCP
INDEX 00 01:58:63
FILE "15 - That Mean Old Train.wav" WAVE
INDEX 01 00:00:00
Any questions -> support@pro-jazz.com. По всем вопросам пишите -> support@pro-jazz.com
14:55
179
Нет комментариев. Ваш будет первым!