Вы используете незарегистрированную версию компонента "Вкладки"!

Поиск

(Free Improvisation) John Butcher, Christoph Irmer, Agusti Fernandez - Clearings - 2004, FLAC (tracks+.cue), lossless

Треклист:
John Butcher, Christoph Irmer, Agustí Fernández - Clearings
Жанр: Free Improvisation
Год выпуска диска: 2004
Производитель диска: ART.CappuccinoNet.com (ART008)
Источник: вот.сиди (weareborg)
Аудио кодек: FLAC
Тип рипа: tracks+.cue
Битрейт аудио: lossless
Продолжительность: 56:24
Трэклист:
1. Entrance 2:25
2. Bumpy Ride 5:11
3. Owl of Minerva 4:12
4. Mirror Images 6:27
5. Siege 4:28
6. Some Time Ago 2:18
7. Crystal Cube 3:06
8. Traps of Silence 5:48
9. Haunted Place 4:44
10. Fire Stack 5:02
11. Prophecy 6:47
12. Fizzy Drive 4:57
13. Farewell 1:00
Composed and produced by Irmer, Butcher, Fernández; Titles: Christoph Irmer
Grabado el 30 de septiembre de 2001 en el Friedrich-Ebert-Halle, Hamburgo (Alemania)
John Butcher, Tenor and Soprano Saxophones
Christoph Irmer, Violin
Agustí Fernández, Piano
 
Отчёт EAC
EAC extraction logfile from 11. January 2009, 12:19 for CD
Various / Clearings
Used drive : _NEC DVD_RW ND-4550A Adapter: 0 ID: 0
Read mode : Secure with NO C2, accurate stream, disable cache
Read offset correction : 48
Overread into Lead-In and Lead-Out : No
Used output format : C:\Program Files\FLAC\flac.exe (User Defined Encoder)
320 kBit/s
Additional command line options : -8 -V -T "artist=%a" -T "title=%t" -T "album=%g" -T "date=%y" -T "trucknumber=%n" -T "genre=%m" %s --delete-input-file
Other options :
Fill up missing offset samples with silence : Yes
Delete leading and trailing silent blocks : No
Native Win32 interface for Win NT & 2000
Track 1
Filename D:\John Butcher - Clearings\01_John Butcher, Christoph Irmer, Agustн Fernбndez - Entrance.wav
Peak level 20.2 %
Track quality 100.0 %
Test CRC D735BF5F
Copy CRC D735BF5F
Copy OK
Track 2
Filename D:\John Butcher - Clearings\02_John Butcher, Christoph Irmer, Agustн Fernбndez - Bumpy Ride.wav
Peak level 59.8 %
Track quality 100.0 %
Test CRC D98FB064
Copy CRC D98FB064
Copy OK
Track 3
Filename D:\John Butcher - Clearings\03_John Butcher, Christoph Irmer, Agustн Fernбndez - Owl Of Minerva.wav
Peak level 56.0 %
Track quality 100.0 %
Test CRC 3B5A8013
Copy CRC 3B5A8013
Copy OK
Track 4
Filename D:\John Butcher - Clearings\04_John Butcher, Christoph Irmer, Agustн Fernбndez - Mirror Images.wav
Peak level 48.4 %
Track quality 100.0 %
Test CRC 81580CC7
Copy CRC 81580CC7
Copy OK
Track 5
Filename D:\John Butcher - Clearings\05_John Butcher, Christoph Irmer, Agustн Fernбndez - Siege.wav
Peak level 86.4 %
Track quality 100.0 %
Test CRC 8618A30D
Copy CRC 8618A30D
Copy OK
Track 6
Filename D:\John Butcher - Clearings\06_John Butcher, Christoph Irmer, Agustн Fernбndez - Some Time Ago.wav
Peak level 19.6 %
Track quality 100.0 %
Test CRC FFFA08B5
Copy CRC FFFA08B5
Copy OK
Track 7
Filename D:\John Butcher - Clearings\07_John Butcher, Christoph Irmer, Agustн Fernбndez - Crystal Cube.wav
Peak level 75.8 %
Track quality 100.0 %
Test CRC 047F11E0
Copy CRC 047F11E0
Copy OK
Track 8
Filename D:\John Butcher - Clearings\08_John Butcher, Christoph Irmer, Agustн Fernбndez - Traps Of Silence.wav
Peak level 31.7 %
Track quality 100.0 %
Test CRC 57F11F9B
Copy CRC 57F11F9B
Copy OK
Track 9
Filename D:\John Butcher - Clearings\09_John Butcher, Christoph Irmer, Agustн Fernбndez - Haunted Place.wav
Peak level 20.9 %
Track quality 100.0 %
Test CRC B388453C
Copy CRC B388453C
Copy OK
Track 10
Filename D:\John Butcher - Clearings\10_John Butcher, Christoph Irmer, Agustн Fernбndez - Fire Stack.wav
Peak level 51.6 %
Track quality 100.0 %
Test CRC FD6DDE0D
Copy CRC FD6DDE0D
Copy OK
Track 11
Filename D:\John Butcher - Clearings\11_John Butcher, Christoph Irmer, Agustн Fernбndez - Prophecy.wav
Peak level 99.1 %
Track quality 100.0 %
Test CRC 2ADDD85A
Copy CRC 2ADDD85A
Copy OK
Track 12
Filename D:\John Butcher - Clearings\12_John Butcher, Christoph Irmer, Agustн Fernбndez - Fizzy Drive.wav
Peak level 90.2 %
Track quality 100.0 %
Test CRC 17F9AD11
Copy CRC 17F9AD11
Copy OK
Track 13
Filename D:\John Butcher - Clearings\13_John Butcher, Christoph Irmer, Agustн Fernбndez - Farewell.wav
Peak level 26.5 %
Track quality 100.0 %
Test CRC 2FDB2ECF
Copy CRC 2FDB2ECF
Copy OK
No errors occured
End of status report
 
Отчёт Audiocheckera
AUDIOCHECKER v1.2 - by Dester - opdester@freemail.hu
~~~~~~~~~~~~~~~~~
01 -===- H:\Песеньки\lossless\john butcher christoph irmer agusti fernandez\clearings 2001\01 Entrance.flac
Extracted successfully
Conclusion: This track looks like CDDA with probability 100%
02 -===- H:\Песеньки\lossless\john butcher christoph irmer agusti fernandez\clearings 2001\02 Bumpy Ride.flac
Extracted successfully
Conclusion: This track looks like CDDA with probability 100%
03 -===- H:\Песеньки\lossless\john butcher christoph irmer agusti fernandez\clearings 2001\03 Owl Of Minerva.flac
Extracted successfully
Conclusion: This track looks like CDDA with probability 99%
04 -===- H:\Песеньки\lossless\john butcher christoph irmer agusti fernandez\clearings 2001\04 Mirror Images.flac
Extracted successfully
Conclusion: This track looks like CDDA with probability 100%
05 -===- H:\Песеньки\lossless\john butcher christoph irmer agusti fernandez\clearings 2001\05 Siege.flac
Extracted successfully
Conclusion: This track looks like CDDA with probability 100%
06 -===- H:\Песеньки\lossless\john butcher christoph irmer agusti fernandez\clearings 2001\06 Some Time Ago.flac
Extracted successfully
Conclusion: This track looks like CDDA with probability 99%
07 -===- H:\Песеньки\lossless\john butcher christoph irmer agusti fernandez\clearings 2001\07 Crystal Cube.flac
Extracted successfully
Conclusion: This track looks like CDDA with probability 99%
08 -===- H:\Песеньки\lossless\john butcher christoph irmer agusti fernandez\clearings 2001\08 Traps Of Silence.flac
Extracted successfully
Conclusion: This track looks like CDDA with probability 100%
09 -===- H:\Песеньки\lossless\john butcher christoph irmer agusti fernandez\clearings 2001\09 Haunted Place.flac
Extracted successfully
Conclusion: This track looks like CDDA with probability 100%
10 -===- H:\Песеньки\lossless\john butcher christoph irmer agusti fernandez\clearings 2001\10 Fire Stack.flac
Extracted successfully
Conclusion: This track looks like CDDA with probability 99%
11 -===- H:\Песеньки\lossless\john butcher christoph irmer agusti fernandez\clearings 2001\11 Prophecy.flac
Extracted successfully
Conclusion: This track looks like CDDA with probability 100%
12 -===- H:\Песеньки\lossless\john butcher christoph irmer agusti fernandez\clearings 2001\12 Fizzy Drive.flac
Extracted successfully
Conclusion: This track looks like CDDA with probability 100%
13 -===- H:\Песеньки\lossless\john butcher christoph irmer agusti fernandez\clearings 2001\13 Farewell.flac
Extracted successfully
Conclusion: This track looks like CDDA with probability 100%
 
cue
REM GENRE "instant composing"
REM DATE 2004
REM DISCID A50D380D
REM COMMENT "ExactAudioCopy v0.95b4"
PERFORMER "Various"
TITLE "Clearings"
FILE "01_John Butcher, Christoph Irmer, Agustн Fernбndez - Entrance.wav" WAVE
TRACK 01 AUDIO
TITLE "Entrance"
PERFORMER "John Butcher, Christoph Irmer, Agustн Fernбndez"
INDEX 01 00:00:00
FILE "02_John Butcher, Christoph Irmer, Agustн Fernбndez - Bumpy Ride.wav" WAVE
TRACK 02 AUDIO
TITLE "Bumpy Ride"
PERFORMER "John Butcher, Christoph Irmer, Agustн Fernбndez"
INDEX 01 00:00:00
FILE "03_John Butcher, Christoph Irmer, Agustн Fernбndez - Owl Of Minerva.wav" WAVE
TRACK 03 AUDIO
TITLE "Owl Of Minerva"
PERFORMER "John Butcher, Christoph Irmer, Agustн Fernбndez"
INDEX 01 00:00:00
FILE "04_John Butcher, Christoph Irmer, Agustн Fernбndez - Mirror Images.wav" WAVE
TRACK 04 AUDIO
TITLE "Mirror Images"
PERFORMER "John Butcher, Christoph Irmer, Agustн Fernбndez"
INDEX 01 00:00:00
FILE "05_John Butcher, Christoph Irmer, Agustн Fernбndez - Siege.wav" WAVE
TRACK 05 AUDIO
TITLE "Siege"
PERFORMER "John Butcher, Christoph Irmer, Agustн Fernбndez"
INDEX 01 00:00:00
FILE "06_John Butcher, Christoph Irmer, Agustн Fernбndez - Some Time Ago.wav" WAVE
TRACK 06 AUDIO
TITLE "Some Time Ago"
PERFORMER "John Butcher, Christoph Irmer, Agustн Fernбndez"
INDEX 01 00:00:00
FILE "07_John Butcher, Christoph Irmer, Agustн Fernбndez - Crystal Cube.wav" WAVE
TRACK 07 AUDIO
TITLE "Crystal Cube"
PERFORMER "John Butcher, Christoph Irmer, Agustн Fernбndez"
INDEX 01 00:00:00
FILE "08_John Butcher, Christoph Irmer, Agustн Fernбndez - Traps Of Silence.wav" WAVE
TRACK 08 AUDIO
TITLE "Traps Of Silence"
PERFORMER "John Butcher, Christoph Irmer, Agustн Fernбndez"
INDEX 01 00:00:00
FILE "09_John Butcher, Christoph Irmer, Agustн Fernбndez - Haunted Place.wav" WAVE
TRACK 09 AUDIO
TITLE "Haunted Place"
PERFORMER "John Butcher, Christoph Irmer, Agustн Fernбndez"
INDEX 01 00:00:00
FILE "10_John Butcher, Christoph Irmer, Agustн Fernбndez - Fire Stack.wav" WAVE
TRACK 10 AUDIO
TITLE "Fire Stack"
PERFORMER "John Butcher, Christoph Irmer, Agustн Fernбndez"
INDEX 01 00:00:00
FILE "11_John Butcher, Christoph Irmer, Agustн Fernбndez - Prophecy.wav" WAVE
TRACK 11 AUDIO
TITLE "Prophecy"
PERFORMER "John Butcher, Christoph Irmer, Agustн Fernбndez"
INDEX 01 00:00:00
FILE "12_John Butcher, Christoph Irmer, Agustн Fernбndez - Fizzy Drive.wav" WAVE
TRACK 12 AUDIO
TITLE "Fizzy Drive"
PERFORMER "John Butcher, Christoph Irmer, Agustн Fernбndez"
INDEX 01 00:00:00
FILE "13_John Butcher, Christoph Irmer, Agustн Fernбndez - Farewell.wav" WAVE
TRACK 13 AUDIO
TITLE "Farewell"
PERFORMER "John Butcher, Christoph Irmer, Agustн Fernбndez"
INDEX 01 00:00:00
Any questions -> support@pro-jazz.com. По всем вопросам пишите -> support@pro-jazz.com
20:13
195
Нет комментариев. Ваш будет первым!