Вы используете незарегистрированную версию компонента "Вкладки"!

Поиск

(Free Improvisation) Joelle Leandre, William Parker - Contrabasses - 1998, FLAC (tracks), lossless

Треклист:
Joelle Leandre, William Parker - Contrabasses
Жанр: Free Improvisation
Год выпуска диска: 1998
Производитель диска: Leo Records
Аудио кодек: FLAC
Тип рипа: tracks
Битрейт аудио: lossless
Продолжительность: 54:17
Трэклист:
1. Duet One 10:38
2. Duet Two 10:40
3. W.P. Solo 10:09
4. Leandre, Parker 8:58
5. J.L. Solo 6:00
6. Duet Four 7:52
 
log
EAC extraction logfile from 3. February 2004, 10:29 for CD
Joelle Lйandre & William Parker / Contrabasses
Used drive : SONY CD-RW CRX195E1 Adapter: 1 ID: 1
Read mode : Secure with NO C2, accurate stream, disable cache
Combined read/write offset correction : 0
Overread into Lead-In and Lead-Out : No
Used output format : C:\flac.exe (User Defined Encoder)
128 kBit/s
Additional command line options : -8 -V -T "artist=%a" -T "title=%t" -T "album=%g" -T "date=%y" -T "tracknumber=%n" -T "genre=%m" -T "comment=EAC Rip by Platypus" %s
Other options :
Fill up missing offset samples with silence : Yes
Delete leading and trailing silent blocks : No
Installed external ASPI interface
Track 1
Filename C:\Various juices\Joelle Lйandre & William Parker - Contrabasses\01 - Duet One.wav
Peak level 95.0 %
Track quality 99.9 %
Test CRC 5B7D31FC
Copy CRC 5B7D31FC
Copy OK
Track 2
Filename C:\Various juices\Joelle Lйandre & William Parker - Contrabasses\02 - Duet Two.wav
Peak level 100.0 %
Track quality 100.0 %
Test CRC FAECB9BF
Copy CRC FAECB9BF
Copy OK
Track 3
Filename C:\Various juices\Joelle Lйandre & William Parker - Contrabasses\03 - W.P. Solo.wav
Peak level 100.0 %
Track quality 99.9 %
Test CRC 07C68DF6
Copy CRC 07C68DF6
Copy OK
Track 4
Filename C:\Various juices\Joelle Lйandre & William Parker - Contrabasses\04 - Duet Three.wav
Peak level 100.0 %
Track quality 100.0 %
Test CRC D7AD0027
Copy CRC D7AD0027
Copy OK
Track 5
Filename C:\Various juices\Joelle Lйandre & William Parker - Contrabasses\05 - J.L. Solo.wav
Peak level 83.0 %
Track quality 100.0 %
Test CRC 87675632
Copy CRC 87675632
Copy OK
Track 6
Filename C:\Various juices\Joelle Lйandre & William Parker - Contrabasses\06 - Duet Four.wav
Peak level 99.8 %
Track quality 99.9 %
Test CRC 2644491E
Copy CRC 2644491E
Copy OK
No errors occured
End of status report
Any questions -> support@pro-jazz.com. По всем вопросам пишите -> support@pro-jazz.com
16:50
145
Нет комментариев. Ваш будет первым!