Вы используете незарегистрированную версию компонента "Вкладки"!

Поиск

(free improvisation) Joe Giardullo - Weather - 2004, FLAC (tracks+.cue) lossless

Треклист:
Joe Giardullo - Weather
Жанр: free improvisation
Страна-производитель диска: Poland
Год издания диска: 2004
Издатель (лейбл): Not Two Records
Номер по каталогу: MW 755-2
Страна: Poland
Аудио кодек: FLAC (*.flac)
Тип рипа: tracks+.cue
Битрейт аудио: lossless
Продолжительность: 54:48
Источник (релизер): собственный рип с оригинального диска.
Наличие сканов в содержимом раздачи: да
Треклист:
01 Channeling
02 Weather
03 Time Change
04 A Love Supreme
 
Лог создания рипа
Exact Audio Copy V0.99 prebeta 5 from 4. May 2009
EAC extraction logfile from 30. January 2011, 18:44
Joe Giardullo / Weather
Used drive : TSSTcorpCDDVDW SH-S222A Adapter: 1 ID: 0
Read mode : Secure
Utilize accurate stream : Yes
Defeat audio cache : Yes
Make use of C2 pointers : No
Read offset correction : 6
Overread into Lead-In and Lead-Out : No
Fill up missing offset samples with silence : Yes
Delete leading and trailing silent blocks : No
Null samples used in CRC calculations : Yes
Used interface : Installed external ASPI interface
Gap handling : Appended to previous track
Used output format : User Defined Encoder
Selected bitrate : 768 kBit/s
Quality : High
Add ID3 tag : No
Command line compressor : C:\Tool\Compress\FLAC\flac.exe
Additional command line options : -V -8 -T "ARTIST=%a" -T "TITLE=%t" -T "ALBUM=%g" -T "TRACKNUMBER=%n" -T "GENRE=%m" %s
TOC of the extracted CD
Track | Start | Length | Start sector | End sector
---------------------------------------------------------
1 | 0:00.00 | 10:57.33 | 0 | 49307
2 | 10:57.33 | 18:51.07 | 49308 | 134139
3 | 29:48.40 | 13:22.08 | 134140 | 194297
4 | 43:10.48 | 11:37.66 | 194298 | 246638
Track 1
Filename C:\! RUTRACKER\ru up\Joe Giardullo - Weather (2004) [FLAC]\01 - channeling.wav
Pre-gap length 0:00:02.00
Peak level 55.8 %
Track quality 100.0 %
Test CRC 856AB00C
Copy CRC 856AB00C
Track not present in AccurateRip database
Copy OK
Track 2
Filename C:\! RUTRACKER\ru up\Joe Giardullo - Weather (2004) [FLAC]\02 - weather.wav
Pre-gap length 0:00:04.00
Peak level 53.2 %
Track quality 100.0 %
Test CRC 33099732
Copy CRC 33099732
Track not present in AccurateRip database
Copy OK
Track 3
Filename C:\! RUTRACKER\ru up\Joe Giardullo - Weather (2004) [FLAC]\03 - times change.wav
Pre-gap length 0:00:02.00
Peak level 83.6 %
Track quality 100.0 %
Test CRC F5F28461
Copy CRC F5F28461
Track not present in AccurateRip database
Copy OK
Track 4
Filename C:\! RUTRACKER\ru up\Joe Giardullo - Weather (2004) [FLAC]\04 - a love supreme.wav
Pre-gap length 0:00:02.00
Peak level 62.9 %
Track quality 100.0 %
Test CRC C1E9A604
Copy CRC C1E9A604
Track not present in AccurateRip database
Copy OK
None of the tracks are present in the AccurateRip database
No errors occurred
End of status report
 
Содержание индексной карты (.CUE)
REM GENRE Jazz
REM DATE 2004
REM DISCID 390CD804
REM COMMENT "ExactAudioCopy v0.99pb5"
PERFORMER "Joe Giardullo"
TITLE "Weather"
FILE "01 - channeling.wav" WAVE
TRACK 01 AUDIO
TITLE "channeling"
PERFORMER "Joe Giardullo"
FLAGS DCP
INDEX 01 00:00:00
TRACK 02 AUDIO
TITLE "weather"
PERFORMER "Joe Giardullo"
FLAGS DCP
INDEX 00 10:53:33
FILE "02 - weather.wav" WAVE
INDEX 01 00:00:00
TRACK 03 AUDIO
TITLE "times change"
PERFORMER "Joe Giardullo"
FLAGS DCP
INDEX 00 18:49:07
FILE "03 - times change.wav" WAVE
INDEX 01 00:00:00
TRACK 04 AUDIO
TITLE "a love supreme"
PERFORMER "Joe Giardullo"
FLAGS DCP
INDEX 00 13:20:08
FILE "04 - a love supreme.wav" WAVE
INDEX 01 00:00:00
Доп. информация:
Recorded live at club RE, Krakow, Poland on April 24, 2004.
 
Об альбоме (сборнике)
Living in upstate New York is not conducive to accruing fame as a jazz musician (forget fortune), unless of course one makes his name in New York City or some other metropolis first. While the veteran soprano saxophonist Joe Giardullo occasionally sojourns into the city and plays gigs in Europe, he has developed out of the spotlight, for the most part.
Such relative obscurity hasn't prevented Giardullo from becoming one of the premiere artists on the small horn, however. "Channeling" is the first track from Weather, a solo album recorded live in concert. The track reveals an uncompromising musician who's taken a course parallel to such players as Evan Parker and Lol Coxhill. Like Parker, he's adept at eking-out a chirpy upper register and weaving long, scrawling lines that assiduously avoid tonality or even precise pitch. He emphasizes the latter aspect by slowing things down and manipulating his tone in tiny increments, rather like the Boston woodwind virtuoso Joe Maneri. Giardullo also varies the character of his sound; a close ear for contrasting timbres is one of his finest qualities.
 
Состав
Joe Giardullo - soprano sax
Any questions -> support@pro-jazz.com. По всем вопросам пишите -> support@pro-jazz.com
08:22
177
Нет комментариев. Ваш будет первым!