Вы используете незарегистрированную версию компонента "Вкладки"!

Поиск

(Free Improvisation) Joëlle Léandre (Joelle Leandre) & Carlos Zingaro - Écritures (Ecritures) - 1996, FLAC (tracks+.cue), lossless

Треклист:
Joëlle Léandre & Carlos Zingaro / Écritures
Жанр: Free Improvisation
Страна-производитель диска: Франция
Год издания: 1996
Издатель (лейбл): In Situ
Номер по каталогу: IS 038
Страна: Франция, Португалия
Аудиокодек: FLAC (*.flac)
Тип рипа: tracks+.cue
Битрейт аудио: lossless
Продолжительность: 44:28
Источник (релизер): вот.сиди (Ludovico)
Наличие сканов в содержимом раздачи: нет
Треклист:
1 Au Bord De L'eau 2:58
2 Crack & Proing Op. #58 2:29
3 Histoire D'Igor 3:28
4 Les Autres 3:09
5 Film Palast 2:34
6 Andantino Un Peu Véloce 2:41
7 Another Soundscape 4:27
8 The Widows 4:05
9 La Grande Brune 2:23
10 Oil On Canvas 1:45
11 The Oblong Bass 2:35
12 Goldenberg Bridge 2:21
13 Mémoires 3:38
14 Petite Valse Assez Triste 2:23
15 A Crise E Os Outros 2:13
Recorded in Paris, 29 May 1990
 
Лог создания рипа
Exact Audio Copy V1.0 beta 3 from 29. August 2011
EAC extraction logfile from 1. May 2012, 11:07
Joelle Leandre Carlos Zingaro / Ecritures
Used drive : TSSTcorpCDDVDW SE-S084F Adapter: 1 ID: 0
Read mode : Secure
Utilize accurate stream : Yes
Defeat audio cache : Yes
Make use of C2 pointers : No
Read offset correction : 6
Overread into Lead-In and Lead-Out : No
Fill up missing offset samples with silence : Yes
Delete leading and trailing silent blocks : No
Null samples used in CRC calculations : Yes
Used interface : Native Win32 interface for Win NT & 2000
Gap handling : Appended to previous track
Used output format : User Defined Encoder
Selected bitrate : 1024 kBit/s
Quality : High
Add ID3 tag : No
Command line compressor : C:\Program Files (x86)\Exact Audio Copy\FLAC\FLAC.EXE
Additional command line options : -8 -V -T "ARTIST=%artist%" -T "TITLE=%title%" -T "ALBUM=%albumtitle%" -T "DATE=%year%" -T "TRACKNUMBER=%tracknr%" -T "GENRE=%genre%" -T "PERFORMER=%albuminterpret%" -T "COMPOSER=%composer%" %haslyrics%--tag-from-file=LYRICS="%lyricsfile%"%haslyrics% -T "ALBUMARTIST=%albumartist%" -T "DISCNUMBER=%cdnumber%" -T "TOTALDISCS=%totalcds%" -T "TOTALTRACKS=%numtracks%" -T "COMMENT=%comment%" %source% -o %dest%
TOC of the extracted CD
Track | Start | Length | Start sector | End sector
---------------------------------------------------------
1 | 0:00.33 | 3:03.72 | 33 | 13829
2 | 3:04.30 | 2:35.63 | 13830 | 25517
3 | 5:40.18 | 3:33.47 | 25518 | 41539
4 | 9:13.65 | 3:13.28 | 41540 | 56042
5 | 12:27.18 | 2:40.30 | 56043 | 68072
6 | 15:07.48 | 2:47.67 | 68073 | 80664
7 | 17:55.40 | 4:33.63 | 80665 | 101202
8 | 22:29.28 | 4:10.55 | 101203 | 120007
9 | 26:40.08 | 2:28.50 | 120008 | 131157
10 | 29:08.58 | 1:49.65 | 131158 | 139397
11 | 30:58.48 | 2:40.00 | 139398 | 151397
12 | 33:38.48 | 2:26.17 | 151398 | 162364
13 | 36:04.65 | 3:43.73 | 162365 | 179162
14 | 39:48.63 | 2:27.12 | 179163 | 190199
15 | 42:16.00 | 2:12.18 | 190200 | 200117
Track 1
Filename E:\Musique FLAC\Joelle Leandre Carlos Zingaro - Ecritures\01 - au bord de l'eau .wav
Pre-gap length 0:00:02.44
Peak level 69.1 %
Extraction speed 1.4 X
Track quality 100.0 %
Test CRC AE49C633
Copy CRC AE49C633
Track not present in AccurateRip database
Copy OK
Track 2
Filename E:\Musique FLAC\Joelle Leandre Carlos Zingaro - Ecritures\02 - crack & prolong op. #58 .wav
Pre-gap length 0:00:06.16
Peak level 74.3 %
Extraction speed 1.6 X
Track quality 100.0 %
Test CRC 9063FB40
Copy CRC 9063FB40
Track not present in AccurateRip database
Copy OK
Track 3
Filename E:\Musique FLAC\Joelle Leandre Carlos Zingaro - Ecritures\03 - histoire d'igor .wav
Pre-gap length 0:00:06.17
Peak level 93.5 %
Extraction speed 1.7 X
Track quality 100.0 %
Test CRC E8B677E4
Copy CRC E8B677E4
Track not present in AccurateRip database
Copy OK
Track 4
Filename E:\Musique FLAC\Joelle Leandre Carlos Zingaro - Ecritures\04 - les autres .wav
Pre-gap length 0:00:05.62
Peak level 91.1 %
Extraction speed 1.8 X
Track quality 100.0 %
Test CRC 8839E10B
Copy CRC 8839E10B
Track not present in AccurateRip database
Copy OK
Track 5
Filename E:\Musique FLAC\Joelle Leandre Carlos Zingaro - Ecritures\05 - film palast .wav
Pre-gap length 0:00:05.00
Peak level 57.6 %
Extraction speed 1.6 X
Track quality 100.0 %
Test CRC A61D0FF9
Copy CRC A61D0FF9
Track not present in AccurateRip database
Copy OK
Track 6
Filename E:\Musique FLAC\Joelle Leandre Carlos Zingaro - Ecritures\06 - andantino un peu veloce .wav
Pre-gap length 0:00:06.40
Peak level 63.2 %
Extraction speed 1.7 X
Track quality 100.0 %
Test CRC 75D7748D
Copy CRC 75D7748D
Track not present in AccurateRip database
Copy OK
Track 7
Filename E:\Musique FLAC\Joelle Leandre Carlos Zingaro - Ecritures\07 - another soundscape .wav
Pre-gap length 0:00:06.29
Peak level 33.1 %
Extraction speed 1.9 X
Track quality 100.0 %
Test CRC 0AC6EE62
Copy CRC 0AC6EE62
Track not present in AccurateRip database
Copy OK
Track 8
Filename E:\Musique FLAC\Joelle Leandre Carlos Zingaro - Ecritures\08 - the windows .wav
Pre-gap length 0:00:06.13
Peak level 53.1 %
Extraction speed 2.1 X
Track quality 100.0 %
Test CRC DFA01DBB
Copy CRC DFA01DBB
Track not present in AccurateRip database
Copy OK
Track 9
Filename E:\Musique FLAC\Joelle Leandre Carlos Zingaro - Ecritures\09 - la grande brune .wav
Pre-gap length 0:00:05.86
Peak level 78.4 %
Extraction speed 1.9 X
Track quality 100.0 %
Test CRC 06955AF7
Copy CRC 06955AF7
Track not present in AccurateRip database
Copy OK
Track 10
Filename E:\Musique FLAC\Joelle Leandre Carlos Zingaro - Ecritures\10 - oil on canvas .wav
Pre-gap length 0:00:06.53
Peak level 35.0 %
Extraction speed 1.4 X
Track quality 99.9 %
Test CRC B6168FCF
Copy CRC B6168FCF
Track not present in AccurateRip database
Copy OK
Track 11
Filename E:\Musique FLAC\Joelle Leandre Carlos Zingaro - Ecritures\11 - the oblong bass .wav
Pre-gap length 0:00:05.40
Peak level 45.3 %
Extraction speed 1.8 X
Track quality 99.9 %
Test CRC CCA96471
Copy CRC CCA96471
Track not present in AccurateRip database
Copy OK
Track 12
Filename E:\Musique FLAC\Joelle Leandre Carlos Zingaro - Ecritures\12 - goldenberg bridge .wav
Pre-gap length 0:00:05.40
Peak level 81.6 %
Extraction speed 2.1 X
Track quality 100.0 %
Test CRC 69D1689E
Copy CRC 69D1689E
Track not present in AccurateRip database
Copy OK
Track 13
Filename E:\Musique FLAC\Joelle Leandre Carlos Zingaro - Ecritures\13 - memoires d'a .wav
Pre-gap length 0:00:05.62
Peak level 60.3 %
Extraction speed 2.4 X
Track quality 100.0 %
Test CRC F42FBD35
Copy CRC F42FBD35
Track not present in AccurateRip database
Copy OK
Track 14
Filename E:\Musique FLAC\Joelle Leandre Carlos Zingaro - Ecritures\14 - petite valse assez triste .wav
Pre-gap length 0:00:06.60
Peak level 19.8 %
Extraction speed 2.4 X
Track quality 100.0 %
Test CRC 9D2B7A6E
Copy CRC 9D2B7A6E
Track not present in AccurateRip database
Copy OK
Track 15
Filename E:\Musique FLAC\Joelle Leandre Carlos Zingaro - Ecritures\15 - a crise e os outros .wav
Pre-gap length 0:00:04.76
Peak level 79.1 %
Extraction speed 2.3 X
Track quality 100.0 %
Test CRC 7B2C8299
Copy CRC 7B2C8299
Track not present in AccurateRip database
Copy OK
None of the tracks are present in the AccurateRip database
No errors occurred
End of status report
==== Log checksum 90D2E7D8E08394BDA13132F8CA29FF96FB00A795406A60EA562E53421F4587D4 ====
 
Содержание индексной карты (.CUE)
REM GENRE jazz
REM DISCID C00A6C0F
REM COMMENT "ExactAudioCopy v1.0b3"
PERFORMER "Joelle Leandre Carlos Zingaro"
TITLE "Ecritures"
FILE "01 - au bord de l'eau .wav" WAVE
TRACK 01 AUDIO
TITLE "au bord de l'eau"
PERFORMER "Joelle Leandre Carlos Zingaro"
PREGAP 00:00:33
INDEX 01 00:00:00
TRACK 02 AUDIO
TITLE "crack & prolong op. #58"
PERFORMER "Joelle Leandre Carlos Zingaro"
INDEX 00 02:57:60
FILE "02 - crack & prolong op. #58 .wav" WAVE
INDEX 01 00:00:00
TRACK 03 AUDIO
TITLE "histoire d'igor"
PERFORMER "Joelle Leandre Carlos Zingaro"
INDEX 00 02:29:50
FILE "03 - histoire d'igor .wav" WAVE
INDEX 01 00:00:00
TRACK 04 AUDIO
TITLE "les autres"
PERFORMER "Joelle Leandre Carlos Zingaro"
INDEX 00 03:28:00
FILE "04 - les autres .wav" WAVE
INDEX 01 00:00:00
TRACK 05 AUDIO
TITLE "film palast"
PERFORMER "Joelle Leandre Carlos Zingaro"
INDEX 00 03:08:28
FILE "05 - film palast .wav" WAVE
INDEX 01 00:00:00
TRACK 06 AUDIO
TITLE "andantino un peu veloce"
PERFORMER "Joelle Leandre Carlos Zingaro"
INDEX 00 02:34:00
FILE "06 - andantino un peu veloce .wav" WAVE
INDEX 01 00:00:00
TRACK 07 AUDIO
TITLE "another soundscape"
PERFORMER "Joelle Leandre Carlos Zingaro"
INDEX 00 02:41:45
FILE "07 - another soundscape .wav" WAVE
INDEX 01 00:00:00
TRACK 08 AUDIO
TITLE "the windows"
PERFORMER "Joelle Leandre Carlos Zingaro"
INDEX 00 04:27:53
FILE "08 - the windows .wav" WAVE
INDEX 01 00:00:00
TRACK 09 AUDIO
TITLE "la grande brune"
PERFORMER "Joelle Leandre Carlos Zingaro"
INDEX 00 04:04:65
FILE "09 - la grande brune .wav" WAVE
INDEX 01 00:00:00
TRACK 10 AUDIO
TITLE "oil on canvas"
PERFORMER "Joelle Leandre Carlos Zingaro"
INDEX 00 02:22:10
FILE "10 - oil on canvas .wav" WAVE
INDEX 01 00:00:00
TRACK 11 AUDIO
TITLE "the oblong bass"
PERFORMER "Joelle Leandre Carlos Zingaro"
INDEX 00 01:44:35
FILE "11 - the oblong bass .wav" WAVE
INDEX 01 00:00:00
TRACK 12 AUDIO
TITLE "goldenberg bridge"
PERFORMER "Joelle Leandre Carlos Zingaro"
INDEX 00 02:34:45
FILE "12 - goldenberg bridge .wav" WAVE
INDEX 01 00:00:00
TRACK 13 AUDIO
TITLE "memoires d'a"
PERFORMER "Joelle Leandre Carlos Zingaro"
INDEX 00 02:20:45
FILE "13 - memoires d'a .wav" WAVE
INDEX 01 00:00:00
TRACK 14 AUDIO
TITLE "petite valse assez triste"
PERFORMER "Joelle Leandre Carlos Zingaro"
INDEX 00 03:37:28
FILE "14 - petite valse assez triste .wav" WAVE
INDEX 01 00:00:00
TRACK 15 AUDIO
TITLE "a crise e os outros"
PERFORMER "Joelle Leandre Carlos Zingaro"
INDEX 00 02:22:30
FILE "15 - a crise e os outros .wav" WAVE
INDEX 01 00:00:00
 
Лог проверки качества
AUDIOCHECKER v2.0 beta (build 457) - by Dester - opdester@freemail.hu
~~~~~~~~~~~~~~~~~~~~~~~~~~~~~~~~~~
-=== DO NOT EDIT THIS FILE! ===-
Path: ...\Joelle Leandre Carlos Zingaro - Ecritures
01 -=- 01 - au bord de l'eau .flac -=- CDDA (99%)
02 -=- 02 - crack & prolong op. #58 .flac -=- CDDA (100%)
03 -=- 03 - histoire d'igor .flac -=- CDDA (100%)
04 -=- 04 - les autres .flac -=- CDDA (100%)
05 -=- 05 - film palast .flac -=- CDDA (100%)
06 -=- 06 - andantino un peu veloce .flac -=- CDDA (100%)
07 -=- 07 - another soundscape .flac -=- CDDA (100%)
08 -=- 08 - the windows .flac -=- CDDA (100%)
09 -=- 09 - la grande brune .flac -=- CDDA (99%)
10 -=- 10 - oil on canvas .flac -=- CDDA (100%)
11 -=- 11 - the oblong bass .flac -=- CDDA (100%)
12 -=- 12 - goldenberg bridge .flac -=- CDDA (99%)
13 -=- 13 - memoires d'a .flac -=- CDDA (100%)
14 -=- 14 - petite valse assez triste .flac -=- CDDA (100%)
15 -=- 15 - a crise e os outros .flac -=- CDDA (100%)
Summary 99,80% CDDA
114716612
 
Состав
Joëlle Léandre, double bass
Carlos Zingaro, violin
Any questions -> support@pro-jazz.com. По всем вопросам пишите -> support@pro-jazz.com
00:31
138
Нет комментариев. Ваш будет первым!