Вы используете незарегистрированную версию компонента "Вкладки"!

Поиск

(Free Improvisation) Ivo Perelman - Brian Willson - The Stream Of Life - 2010, FLAC (tracks+.cue), lossless

(Free Improvisation) Ivo Perelman - Brian Willson - The Stream Of Life - 2010, FLAC (tracks+.cue), lossless
Треклист:
Ivo Perelman - Brian Willson - The Stream Of Life
Жанр: Free Improvisation
Страна-производитель диска: Great Britain
Год издания: 2010
Издатель (лейбл): Leo Records
Номер по каталогу: CD LR 571
Аудиокодек: FLAC (*.flac)
Тип рипа: tracks+.cue
Битрейт аудио: lossless
Продолжительность: 64 min.
Источник (релизер): собственный рип с оригинального диска
Наличие сканов в содержимом раздачи: да
Треклист:
01. The Stream Of Life 2:24
02. Clarice 6:09
03. Agua Viva 6:04
04. French Hope 6:15
05. Murmirios 6:19
06. Vicarious Punishment 6:53
07. A Bola E O Menino 6:37
08. Timponiana 6:45
09. After The Third Wall 5:04
10. Juntos Para Sempre 7:19
11. Shaky 2:52
 
Лог создания рипа
Exact Audio Copy V1.0 beta 3 from 29. August 2011
EAC extraction logfile from 29. April 2013, 7:51
Ivo Perelman - Brian Willson / The Stream of Live
Used drive : TSSTcorpCDDVDW SH-S222A Adapter: 1 ID: 0
Read mode : Secure
Utilize accurate stream : Yes
Defeat audio cache : Yes
Make use of C2 pointers : No
Read offset correction : 6
Overread into Lead-In and Lead-Out : No
Fill up missing offset samples with silence : Yes
Delete leading and trailing silent blocks : No
Null samples used in CRC calculations : Yes
Used interface : Native Win32 interface for Win NT & 2000
Gap handling : Appended to previous track
Used output format : User Defined Encoder
Selected bitrate : 896 kBit/s
Quality : High
Add ID3 tag : No
Command line compressor : C:\Tool\CD\EAC10\FLAC\FLAC.EXE
Additional command line options : -8 -V -T "ARTIST=%artist%" -T "TITLE=%title%" -T "ALBUM=%albumtitle%" -T "DATE=%year%" -T "TRACKNUMBER=%tracknr%" -T "GENRE=%genre%" -T "PERFORMER=%albuminterpret%" -T "COMPOSER=%composer%" %haslyrics%--tag-from-file=LYRICS="%lyricsfile%"%haslyrics% -T "ALBUMARTIST=%albumartist%" -T "ALBUM ARTIST=%albumartist%" -T "DISCNUMBER=%cdnumber%" -T "TOTALDISCS=%totalcds%" -T "TOTALTRACKS=%numtracks%" -T "COMMENT=EAC V1.0 beta 3, Secure Mode, Test & Copy, AccurateRip, FLAC -8" %source% -o %dest%
TOC of the extracted CD
Track | Start | Length | Start sector | End sector
---------------------------------------------------------
1 | 0:00.00 | 2:27.54 | 0 | 11078
2 | 2:27.54 | 6:12.56 | 11079 | 39034
3 | 8:40.35 | 6:09.02 | 39035 | 66711
4 | 14:49.37 | 6:18.27 | 66712 | 95088
5 | 21:07.64 | 6:23.02 | 95089 | 123815
6 | 27:30.66 | 6:56.28 | 123816 | 155043
7 | 34:27.19 | 6:39.69 | 155044 | 185037
8 | 41:07.13 | 6:48.44 | 185038 | 215681
9 | 47:55.57 | 5:07.72 | 215682 | 238778
10 | 53:03.54 | 7:22.49 | 238779 | 271977
11 | 60:26.28 | 2:53.20 | 271978 | 284972
Track 1
Filename C:\! UPLOAD\Ivo Perelman - Brian Willson - The Stream of Life (2010) [FLAC]\01 - The Stream of Live.wav
Pre-gap length 0:00:02.00
Peak level 100.0 %
Extraction speed 1.6 X
Track quality 99.9 %
Test CRC B2783F39
Copy CRC B2783F39
Track not present in AccurateRip database
Copy OK
Track 2
Filename C:\! UPLOAD\Ivo Perelman - Brian Willson - The Stream of Life (2010) [FLAC]\02 - Clarice.wav
Pre-gap length 0:00:03.00
Peak level 100.0 %
Extraction speed 2.9 X
Track quality 100.0 %
Test CRC A5DB055D
Copy CRC A5DB055D
Track not present in AccurateRip database
Copy OK
Track 3
Filename C:\! UPLOAD\Ivo Perelman - Brian Willson - The Stream of Life (2010) [FLAC]\03 - Agua Viva.wav
Pre-gap length 0:00:03.00
Peak level 100.0 %
Extraction speed 3.3 X
Track quality 100.0 %
Test CRC 494678C1
Copy CRC 494678C1
Track not present in AccurateRip database
Copy OK
Track 4
Filename C:\! UPLOAD\Ivo Perelman - Brian Willson - The Stream of Life (2010) [FLAC]\04 - French Hope.wav
Pre-gap length 0:00:03.00
Peak level 100.0 %
Extraction speed 3.6 X
Track quality 100.0 %
Test CRC CCA01E9F
Copy CRC CCA01E9F
Track not present in AccurateRip database
Copy OK
Track 5
Filename C:\! UPLOAD\Ivo Perelman - Brian Willson - The Stream of Life (2010) [FLAC]\05 - Murmirios.wav
Pre-gap length 0:00:03.00
Peak level 100.0 %
Extraction speed 4.0 X
Track quality 100.0 %
Test CRC 2DA9F5FD
Copy CRC 2DA9F5FD
Track not present in AccurateRip database
Copy OK
Track 6
Filename C:\! UPLOAD\Ivo Perelman - Brian Willson - The Stream of Life (2010) [FLAC]\06 - Vicarious Punishment.wav
Pre-gap length 0:00:03.00
Peak level 100.0 %
Extraction speed 4.3 X
Track quality 100.0 %
Test CRC 21C4AC9A
Copy CRC 21C4AC9A
Track not present in AccurateRip database
Copy OK
Track 7
Filename C:\! UPLOAD\Ivo Perelman - Brian Willson - The Stream of Life (2010) [FLAC]\07 - A Bola e o Menino.wav
Pre-gap length 0:00:03.00
Peak level 100.0 %
Extraction speed 4.6 X
Track quality 100.0 %
Test CRC 24D3944D
Copy CRC 24D3944D
Track not present in AccurateRip database
Copy OK
Track 8
Filename C:\! UPLOAD\Ivo Perelman - Brian Willson - The Stream of Life (2010) [FLAC]\08 - Timponiana.wav
Pre-gap length 0:00:02.00
Peak level 100.0 %
Extraction speed 4.8 X
Track quality 100.0 %
Test CRC 99E95363
Copy CRC 99E95363
Track not present in AccurateRip database
Copy OK
Track 9
Filename C:\! UPLOAD\Ivo Perelman - Brian Willson - The Stream of Life (2010) [FLAC]\09 - After the Third Wall.wav
Pre-gap length 0:00:03.00
Peak level 100.0 %
Extraction speed 4.9 X
Track quality 100.0 %
Test CRC FE22B0BF
Copy CRC FE22B0BF
Track not present in AccurateRip database
Copy OK
Track 10
Filename C:\! UPLOAD\Ivo Perelman - Brian Willson - The Stream of Life (2010) [FLAC]\10 - Juntos Para Sempre.wav
Pre-gap length 0:00:03.00
Peak level 100.0 %
Extraction speed 5.3 X
Track quality 100.0 %
Test CRC 1EF38872
Copy CRC 1EF38872
Track not present in AccurateRip database
Copy OK
Track 11
Filename C:\! UPLOAD\Ivo Perelman - Brian Willson - The Stream of Life (2010) [FLAC]\11 - Shaky.wav
Pre-gap length 0:00:03.00
Peak level 100.0 %
Extraction speed 3.5 X
Track quality 99.9 %
Test CRC C243B8F2
Copy CRC C243B8F2
Track not present in AccurateRip database
Copy OK
None of the tracks are present in the AccurateRip database
No errors occurred
End of status report
---- CUETools DB Plugin V2.1.3
[CTDB TOCID: bjoG_XudT0HtFs.I1rflDXZeKok-] disk not present in database, Submit result: bjoG_XudT0HtFs.I1rflDXZeKok- has been uploaded
==== Log checksum 01E1D4CA8B287D8E25EBBE82BE45D29626743702D17E486A89260FE0EE39F416 ====
 
Содержание индексной карты (.CUE)
REM GENRE "Avant-Garde Jazz"
REM DATE 2010
REM DISCID AD0ED70B
REM COMMENT "ExactAudioCopy v1.0b3"
PERFORMER "Ivo Perelman - Brian Willson"
TITLE "The Stream of Live"
FILE "01 - The Stream of Live.wav" WAVE
TRACK 01 AUDIO
TITLE "The Stream of Live"
PERFORMER "Ivo Perelman - Brian Willson"
FLAGS DCP
INDEX 01 00:00:00
TRACK 02 AUDIO
TITLE "Clarice"
PERFORMER "Ivo Perelman - Brian Willson"
FLAGS DCP
INDEX 00 02:24:54
FILE "02 - Clarice.wav" WAVE
INDEX 01 00:00:00
TRACK 03 AUDIO
TITLE "Agua Viva"
PERFORMER "Ivo Perelman - Brian Willson"
FLAGS DCP
INDEX 00 06:09:56
FILE "03 - Agua Viva.wav" WAVE
INDEX 01 00:00:00
TRACK 04 AUDIO
TITLE "French Hope"
PERFORMER "Ivo Perelman - Brian Willson"
FLAGS DCP
INDEX 00 06:06:02
FILE "04 - French Hope.wav" WAVE
INDEX 01 00:00:00
TRACK 05 AUDIO
TITLE "Murmirios"
PERFORMER "Ivo Perelman - Brian Willson"
FLAGS DCP
INDEX 00 06:15:27
FILE "05 - Murmirios.wav" WAVE
INDEX 01 00:00:00
TRACK 06 AUDIO
TITLE "Vicarious Punishment"
PERFORMER "Ivo Perelman - Brian Willson"
FLAGS DCP
INDEX 00 06:20:02
FILE "06 - Vicarious Punishment.wav" WAVE
INDEX 01 00:00:00
TRACK 07 AUDIO
TITLE "A Bola e o Menino"
PERFORMER "Ivo Perelman - Brian Willson"
FLAGS DCP
INDEX 00 06:53:28
FILE "07 - A Bola e o Menino.wav" WAVE
INDEX 01 00:00:00
TRACK 08 AUDIO
TITLE "Timponiana"
PERFORMER "Ivo Perelman - Brian Willson"
FLAGS DCP
INDEX 00 06:37:69
FILE "08 - Timponiana.wav" WAVE
INDEX 01 00:00:00
TRACK 09 AUDIO
TITLE "After the Third Wall"
PERFORMER "Ivo Perelman - Brian Willson"
FLAGS DCP
INDEX 00 06:45:44
FILE "09 - After the Third Wall.wav" WAVE
INDEX 01 00:00:00
TRACK 10 AUDIO
TITLE "Juntos Para Sempre"
PERFORMER "Ivo Perelman - Brian Willson"
FLAGS DCP
INDEX 00 05:04:72
FILE "10 - Juntos Para Sempre.wav" WAVE
INDEX 01 00:00:00
TRACK 11 AUDIO
TITLE "Shaky"
PERFORMER "Ivo Perelman - Brian Willson"
FLAGS DCP
INDEX 00 07:19:49
FILE "11 - Shaky.wav" WAVE
INDEX 01 00:00:00
Доп. информация:
Recorded In November 2008 At Parkwest Studios, Brooklyn, New York.
 
Об альбоме (by Stef)
Like in his paintings, saxophonist Ivo Perelman likes broad strokes, often colorful over empty or almost empty backdrops. Even if his improvisations are mostly abstract, the color of jazz tradition and his native Brazil shine through at moments. As I described him last year : a powerful lyricist.
 
Об альбоме (Glenn Astarita / JazzReview)
Perelman has been a significant force in free-jazz and improvisation circles, and this release amplifies his prominence in rather poignant fashion. However, it’s not a musical slugfest by any stretch.
 
Об альбоме (jazzowy alchemik)
This one is simply an hour of jazz delight. Free in spirit and nature but never too far from jazz roots, with two musicians of great skills playing together in a way that any great duo should - close to synchronicity of minds but never loosing their individual features. A true jazz gem and I can't recommend it high enough.
 
Об альбоме (Alex Henderson / amg)
The Stream of Life is not an example of scorching atonality from start to finish. Parts of this disc, in fact, are contemplative, somewhat bluesy, and relatively lyrical.
 
Состав
Ivo Perelman - tenor saxophone
Brian Willson - drums
Any questions -> support@pro-jazz.com. По всем вопросам пишите -> support@pro-jazz.com
13:26
152
Нет комментариев. Ваш будет первым!