Вы используете незарегистрированную версию компонента "Вкладки"!

Поиск

(free improvisation) Intermission - Unanswered Questions - 1998, FLAC (image+.cue), lossless

(free improvisation) Intermission - Unanswered Questions - 1998, FLAC (image+.cue), lossless
Треклист:
Intermission - Unanswered Questions
Жанр: free improvisation
Год выпуска диска: 1998
Производитель диска: Netherlands
Аудио кодек: FLAC
Тип рипа: image+.cue
Битрейт аудио: lossless
Продолжительность: 1:10:47
Трэклист:
1. Bells (16:24)
2. Don't Piss in My Ear and Say It's Raining (13:36)
3. Rain, Snow & Hail (11:27)
4. Omaggio a Pasolini (19:15)
5. Bimpro (9:58)
Доп. информация: Intermission:
Klaas Hekman: bass saxophone, editing, mastering
William Parker: double bass
Wilbert de Joode: double bass
Hideji Taninaka: double bass
Guests:
Derek Bailey: guitar
Chris Burn: piano
Gilius van Bergeijk: electronics
http://allmusic.com/cg/amg.dll?p=amg&sql=10:aifexql0ldfe~T1
Очень интересный альбом с довольно необычным использованием басовых инструментов, рекомендую
 
Очет ЕАС
Exact Audio Copy V0.99 prebeta 3 from 28. July 2007
Отчёт EAC об извлечении, выполненном 9. июля 2008, 12:54
- / intermission
Дисковод: HL-DT-STDVDRAM GSA-4167B Adapter: 1 ID: 0
Режим чтения : Достоверность
Использование точного потока : Да
Отключение кэша аудио : Да
Использование указателей C2 : Нет
Коррекция смещения при чтении : 667
Способность читать области Lead-in и Lead-out : Нет
Заполнение пропущенных сэмплов тишиной : Да
Удаление блоков с тишиной в начале и конце : Нет
При вычислениях CRC использовались нулевые сэмплы : Да
Интерфейс : Встроенный Win32-интерфейс для Win NT/2000
Выходной формат : Внутренние WAV-операции
Формат сэмплов : 44.100 Гц; 16 бит; стерео
Смещение при сжатии : 0
TOC извлечённого CD
Трек | Старт | Длительность | Начальный сектор | Конечный сектор
---------------------------------------------------------------------
1 | 0:00.00 | 16:26.14 | 0 | 73963
2 | 16:26.14 | 13:38.09 | 73964 | 135322
3 | 30:04.23 | 11:28.51 | 135323 | 186973
4 | 41:32.74 | 19:16.20 | 186974 | 273693
5 | 60:49.19 | 9:57.38 | 273694 | 318506
Характеристики диапазона извлечения и сообщения об ошибках
Выбранный диапазон
Имя файла D:\intermission.wav
Пиковый уровень 100.0 %
Качество диапазона 100.0 %
CRC копии B9F34476
Копирование... OK
Ошибок не произошло
AccurateRip: сводка
Трек 1 нет в базе данных
Трек 2 нет в базе данных
Трек 3 нет в базе данных
Трек 4 нет в базе данных
Трек 5 нет в базе данных
Ни одного трека нет в базе AccurateRip
Конец отчёта
Any questions -> support@pro-jazz.com. По всем вопросам пишите -> support@pro-jazz.com
09:04
239
Нет комментариев. Ваш будет первым!