Вы используете незарегистрированную версию компонента "Вкладки"!

Поиск

(Free Improvisation, Intakt Records) Steve Lacy - November - 2010, FLAC (tracks+.cue), lossless

(Free Improvisation, Intakt Records) Steve Lacy - November - 2010, FLAC (tracks+.cue), lossless
Издатель (лейбл):
Треклист:
Steve Lacy / November
Жанр: Free Improvisation, Intakt Records
Страна-производитель диска: Switzerland
Год издания: 2010
Издатель (лейбл): Intakt Records
Номер по каталогу: CD 171
Аудиокодек: FLAC (*.flac)
Тип рипа: tracks+.cue
Битрейт аудио: lossless
Продолжительность: 48:24
Источник (релизер): Max Monteiro
Наличие сканов в содержимом раздачи: да
Треклист:
01. The Crust 4:50
02. Moms 6:12
03. Tinas Tune 4:42
04. The Door 5:25
05. Blues for Aida 6:48
06. The Hoot 4:05
07. The New Duck 4:23
08. The Rent 4:39
09. The Whammies 2:52
10. Reflections (Thelonious Monk) 4:27
All compositions by Steve Lacy except where indicated.
Recorded November 29, 2003 at Unerhört!-Festival, Rote Fabrik, Zürich, Switzerland.
Steve Lacy – Soprano Saxophone
 
Лог создания рипа
Exact Audio Copy V1.0 beta 3 from 29. August 2011
EAC extraction logfile from 1. June 2013, 22:26
Steve Lacy / November
Used drive : SlimtypeeNAU508 5 Adapter: 1 ID: 0
Read mode : Secure
Utilize accurate stream : Yes
Defeat audio cache : Yes
Make use of C2 pointers : No
Read offset correction : 6
Overread into Lead-In and Lead-Out : No
Fill up missing offset samples with silence : Yes
Delete leading and trailing silent blocks : No
Null samples used in CRC calculations : Yes
Used interface : Native Win32 interface for Win NT & 2000
Gap handling : Appended to previous track
Used output format : User Defined Encoder
Selected bitrate : 768 kBit/s
Quality : High
Add ID3 tag : No
Command line compressor : C:\Program Files (x86)\Exact Audio Copy\Flac\flac.exe
Additional command line options : -8 -V -T "ARTIST=%artist%" -T "TITLE=%title%" -T "ALBUM=%albumtitle%" -T "DATE=%year%" -T "TRACKNUMBER=%tracknr%" -T "GENRE=%genre%" -T "PERFORMER=%albuminterpret%" -T "COMPOSER=%composer%" %haslyrics%--tag-from-file=LYRICS="%lyricsfile%"%haslyrics% -T "ALBUMARTIST=%albumartist%" -T "DISCNUMBER=%cdnumber%" -T "TOTALDISCS=%totalcds%" -T "TOTALTRACKS=%numtracks%" -T "COMMENT=%comment%" %source% -o %dest%
TOC of the extracted CD
Track | Start | Length | Start sector | End sector
---------------------------------------------------------
1 | 0:00.00 | 4:50.21 | 0 | 21770
2 | 4:50.21 | 6:12.32 | 21771 | 49702
3 | 11:02.53 | 4:41.45 | 49703 | 70822
4 | 15:44.23 | 5:25.21 | 70823 | 95218
5 | 21:09.44 | 6:47.47 | 95219 | 125790
6 | 27:57.16 | 4:04.71 | 125791 | 144161
7 | 32:02.12 | 4:22.74 | 144162 | 163885
8 | 36:25.11 | 4:39.09 | 163886 | 184819
9 | 41:04.20 | 2:52.17 | 184820 | 197736
10 | 43:56.37 | 4:27.28 | 197737 | 217789
Track 1
Filename C:\EAC rips\01 - The Crust.wav
Pre-gap length 0:00:02.00
Peak level 98.8 %
Extraction speed 2.2 X
Track quality 100.0 %
Test CRC 642A3BBD
Copy CRC 642A3BBD
Accurately ripped (confidence 4) [4CF71FF3] (AR v1)
Copy OK
Track 2
Filename C:\EAC rips\02 - Moms.wav
Peak level 98.8 %
Extraction speed 2.5 X
Track quality 100.0 %
Test CRC E91E9964
Copy CRC E91E9964
Accurately ripped (confidence 4) [9EA29211] (AR v1)
Copy OK
Track 3
Filename C:\EAC rips\03 - Tina's Tune.wav
Peak level 98.6 %
Extraction speed 2.8 X
Track quality 100.0 %
Test CRC B394067A
Copy CRC B394067A
Accurately ripped (confidence 4) [B489607A] (AR v1)
Copy OK
Track 4
Filename C:\EAC rips\04 - The Door.wav
Peak level 98.7 %
Extraction speed 3.0 X
Track quality 100.0 %
Test CRC 33A711D5
Copy CRC 33A711D5
Accurately ripped (confidence 4) [BAA924DF] (AR v1)
Copy OK
Track 5
Filename C:\EAC rips\05 - Blues for Aida.wav
Peak level 98.6 %
Extraction speed 3.4 X
Track quality 100.0 %
Test CRC 56B82D24
Copy CRC 56B82D24
Accurately ripped (confidence 4) [B9250728] (AR v1)
Copy OK
Track 6
Filename C:\EAC rips\06 - The Hoot.wav
Peak level 98.8 %
Extraction speed 3.4 X
Track quality 100.0 %
Test CRC B45F3356
Copy CRC B45F3356
Accurately ripped (confidence 4) [FC164DC7] (AR v1)
Copy OK
Track 7
Filename C:\EAC rips\07 - The New Duck.wav
Peak level 98.8 %
Extraction speed 3.6 X
Track quality 100.0 %
Test CRC FE21D9E5
Copy CRC FE21D9E5
Accurately ripped (confidence 4) [8632EF20] (AR v1)
Copy OK
Track 8
Filename C:\EAC rips\08 - The Rent.wav
Peak level 98.8 %
Extraction speed 3.7 X
Track quality 100.0 %
Test CRC 6E755D8F
Copy CRC 6E755D8F
Accurately ripped (confidence 4) [50ECA80C] (AR v1)
Copy OK
Track 9
Filename C:\EAC rips\09 - The Whammies.wav
Peak level 98.8 %
Extraction speed 3.6 X
Track quality 100.0 %
Test CRC A2323B0D
Copy CRC A2323B0D
Accurately ripped (confidence 4) [E9523C22] (AR v1)
Copy OK
Track 10
Filename C:\EAC rips\10 - Reflections.wav
Peak level 98.8 %
Extraction speed 3.9 X
Track quality 100.0 %
Test CRC 1C517EDB
Copy CRC 1C517EDB
Accurately ripped (confidence 4) [1F5E4244] (AR v1)
Copy OK
All tracks accurately ripped
No errors occurred
End of status report
---- CUETools DB Plugin V2.1.4
[CTDB TOCID: fAn0osu.RmC_XfhTDE8wIS29UpA-] disk not present in database
Submit result: fAn0osu.RmC_XfhTDE8wIS29UpA- has been uploaded
==== Log checksum CF9216A190886BA45EBAF782709378C708359419C9A45A45A438E1325D127709 ====
 
Содержание индексной карты (.CUE)
REM GENRE Jazz
REM DATE 2010
REM DISCID 9B0B570A
REM COMMENT "ExactAudioCopy v1.0b3"
PERFORMER "Steve Lacy"
TITLE "November"
FILE "01 - The Crust.wav" WAVE
TRACK 01 AUDIO
TITLE "The Crust"
PERFORMER "Steve Lacy"
ISRC CH2701001130
FLAGS DCP
INDEX 01 00:00:00
FILE "02 - Moms.wav" WAVE
TRACK 02 AUDIO
TITLE "Moms"
PERFORMER "Steve Lacy"
ISRC CH2701001131
FLAGS DCP
INDEX 01 00:00:00
FILE "03 - Tina's Tune.wav" WAVE
TRACK 03 AUDIO
TITLE "Tina's Tune"
PERFORMER "Steve Lacy"
ISRC CH2701001132
FLAGS DCP
INDEX 01 00:00:00
FILE "04 - The Door.wav" WAVE
TRACK 04 AUDIO
TITLE "The Door"
PERFORMER "Steve Lacy"
ISRC CH2701001133
FLAGS DCP
INDEX 01 00:00:00
FILE "05 - Blues for Aida.wav" WAVE
TRACK 05 AUDIO
TITLE "Blues for Aida"
PERFORMER "Steve Lacy"
ISRC CH2701001134
FLAGS DCP
INDEX 01 00:00:00
FILE "06 - The Hoot.wav" WAVE
TRACK 06 AUDIO
TITLE "The Hoot"
PERFORMER "Steve Lacy"
ISRC CH2701001135
FLAGS DCP
INDEX 01 00:00:00
FILE "07 - The New Duck.wav" WAVE
TRACK 07 AUDIO
TITLE "The New Duck"
PERFORMER "Steve Lacy"
ISRC CH2701001136
FLAGS DCP
INDEX 01 00:00:00
FILE "08 - The Rent.wav" WAVE
TRACK 08 AUDIO
TITLE "The Rent"
PERFORMER "Steve Lacy"
ISRC CH2701001137
FLAGS DCP
INDEX 01 00:00:00
FILE "09 - The Whammies.wav" WAVE
TRACK 09 AUDIO
TITLE "The Whammies"
PERFORMER "Steve Lacy"
ISRC CH2701001138
FLAGS DCP
INDEX 01 00:00:00
FILE "10 - Reflections.wav" WAVE
TRACK 10 AUDIO
TITLE "Reflections"
PERFORMER "Steve Lacy"
ISRC CH2701001139
FLAGS DCP
INDEX 01 00:00:00
Any questions -> support@pro-jazz.com. По всем вопросам пишите -> support@pro-jazz.com
14:11
228
Нет комментариев. Ваш будет первым!