Вы используете незарегистрированную версию компонента "Вкладки"!

Поиск

(Free Improvisation, Intakt Records) Stephan Wittwer - World of Strings - 1990, FLAC (tracks+.cue), lossless

(Free Improvisation, Intakt Records) Stephan Wittwer - World of Strings - 1990, FLAC (tracks+.cue), lossless
Издатель (лейбл):
Треклист:
Stephan Wittwer / World of Strings
Жанр: Free Improvisation, Intakt Records
Страна-производитель диска: Switzerland
Год издания: 1990
Издатель (лейбл): Intakt Records
Номер по каталогу: CD 017
Аудиокодек: FLAC (*.flac)
Тип рипа: tracks+.cue
Битрейт аудио: lossless
Продолжительность: 51:21
Источник (релизер): Max Monteiro
Наличие сканов в содержимом раздачи: да
Треклист:
1. The Rite of String 4:30
2. Sonata « Die Welt der Schnüre » 23:16
3. Death Jazz 6:11
4. Tap Dance 2:36
5. Down Home 14:48
Solo guitar improvisations played at Susan Wyss Gallery Zurich. Recorded live on July 11 and 13, 1989.
 
Лог создания рипа
Exact Audio Copy V1.0 beta 3 from 29. August 2011
EAC extraction logfile from 28. May 2013, 18:43
Stephan Wittwer / World of Strings
Used drive : SlimtypeeNAU508 5 Adapter: 1 ID: 0
Read mode : Secure
Utilize accurate stream : Yes
Defeat audio cache : Yes
Make use of C2 pointers : No
Read offset correction : 6
Overread into Lead-In and Lead-Out : No
Fill up missing offset samples with silence : Yes
Delete leading and trailing silent blocks : No
Null samples used in CRC calculations : Yes
Used interface : Native Win32 interface for Win NT & 2000
Gap handling : Appended to previous track
Used output format : User Defined Encoder
Selected bitrate : 768 kBit/s
Quality : High
Add ID3 tag : No
Command line compressor : C:\Program Files (x86)\Exact Audio Copy\Flac\flac.exe
Additional command line options : -8 -V -T "ARTIST=%artist%" -T "TITLE=%title%" -T "ALBUM=%albumtitle%" -T "DATE=%year%" -T "TRACKNUMBER=%tracknr%" -T "GENRE=%genre%" -T "PERFORMER=%albuminterpret%" -T "COMPOSER=%composer%" %haslyrics%--tag-from-file=LYRICS="%lyricsfile%"%haslyrics% -T "ALBUMARTIST=%albumartist%" -T "DISCNUMBER=%cdnumber%" -T "TOTALDISCS=%totalcds%" -T "TOTALTRACKS=%numtracks%" -T "COMMENT=%comment%" %source% -o %dest%
TOC of the extracted CD
Track | Start | Length | Start sector | End sector
---------------------------------------------------------
1 | 0:00.00 | 4:30.25 | 0 | 20274
2 | 4:30.25 | 23:15.57 | 20275 | 124956
3 | 27:46.07 | 6:10.65 | 124957 | 152771
4 | 33:56.72 | 2:36.03 | 152772 | 164474
5 | 36:33.00 | 14:48.00 | 164475 | 231074
Track 1
Filename C:\EAC rips\01 - The Rite of String.wav
Pre-gap length 0:00:02.00
Peak level 100.0 %
Extraction speed 2.1 X
Track quality 100.0 %
Test CRC 6A3E6F56
Copy CRC 6A3E6F56
Track not present in AccurateRip database
Copy OK
Track 2
Filename C:\EAC rips\02 - Sonata ''Die Welt der Schnüre''.wav
Peak level 100.0 %
Extraction speed 3.2 X
Track quality 100.0 %
Test CRC 4070633E
Copy CRC 4070633E
Track not present in AccurateRip database
Copy OK
Track 3
Filename C:\EAC rips\03 - Death Jazz.wav
Pre-gap length 0:00:17.07
Peak level 100.0 %
Extraction speed 3.2 X
Track quality 99.9 %
Test CRC E9A65E50
Copy CRC E9A65E50
Track not present in AccurateRip database
Copy OK
Track 4
Filename C:\EAC rips\04 - Tap Dance.wav
Pre-gap length 0:00:16.72
Peak level 69.1 %
Extraction speed 2.5 X
Track quality 99.9 %
Test CRC E8B3CA16
Copy CRC E8B3CA16
Track not present in AccurateRip database
Copy OK
Track 5
Filename C:\EAC rips\05 - Down Home.wav
Pre-gap length 0:00:01.25
Peak level 78.5 %
Extraction speed 4.3 X
Track quality 100.0 %
Test CRC 1D336828
Copy CRC 1D336828
Track not present in AccurateRip database
Copy OK
None of the tracks are present in the AccurateRip database
No errors occurred
End of status report
---- CUETools DB Plugin V2.1.4
[CTDB TOCID: 1MqXFoDAfFTEwdafxUJ58pNBGek-] disk not present in database
Submit result: 1MqXFoDAfFTEwdafxUJ58pNBGek- has been uploaded
==== Log checksum 27EC662E5D1EC5F2CF1231B24128A5DDE3A2EF12592B13AB7A6BACD94DEFDDA8 ====
 
Содержание индексной карты (.CUE)
REM GENRE Jazz
REM DATE 1990
REM DISCID 400C0905
REM COMMENT "ExactAudioCopy v1.0b3"
PERFORMER "Stephan Wittwer"
TITLE "World of Strings"
FILE "01 - The Rite of String.wav" WAVE
TRACK 01 AUDIO
TITLE "The Rite of String"
PERFORMER "Stephan Wittwer"
INDEX 01 00:00:00
FILE "02 - Sonata ''Die Welt der Schnüre''.wav" WAVE
TRACK 02 AUDIO
TITLE "Sonata 'Die Welt der Schnüre'"
PERFORMER "Stephan Wittwer"
INDEX 01 00:00:00
TRACK 03 AUDIO
TITLE "Death Jazz"
PERFORMER "Stephan Wittwer"
INDEX 00 22:58:50
FILE "03 - Death Jazz.wav" WAVE
INDEX 01 00:00:00
TRACK 04 AUDIO
TITLE "Tap Dance"
PERFORMER "Stephan Wittwer"
INDEX 00 05:53:68
FILE "04 - Tap Dance.wav" WAVE
INDEX 01 00:00:00
TRACK 05 AUDIO
TITLE "Down Home"
PERFORMER "Stephan Wittwer"
INDEX 00 02:34:53
FILE "05 - Down Home.wav" WAVE
INDEX 01 00:00:00
Any questions -> support@pro-jazz.com. По всем вопросам пишите -> support@pro-jazz.com
13:58
153
Нет комментариев. Ваш будет первым!