Вы используете незарегистрированную версию компонента "Вкладки"!

Поиск

(Free Improvisation, Intakt Records) Irene Schweizer & Pierre Favre - Irene Schweizer & Pierre Favre - 1992, FLAC (tracks+.cue), lossless

(Free Improvisation, Intakt Records) Irene Schweizer & Pierre Favre - Irene Schweizer & Pierre Favre - 1992, FLAC (tracks+.cue), lossless
Издатель (лейбл):
Треклист:
Irène Schweizer & Pierre Favre / Irène Schweizer & Pierre Favre
Жанр: Free Improvisation, Intakt Records
Страна-производитель диска: Switzerland
Год издания: 1992
Издатель (лейбл): Intakt Records
Номер по каталогу: CD 009
Аудиокодек: FLAC (*.flac)
Тип рипа: tracks+.cue
Битрейт аудио: lossless
Продолжительность: 59:38
Источник (релизер): Max Monteiro
Наличие сканов в содержимом раздачи: да
Треклист:
01. Cache-Cache 4:39
02. Ein schnelles Verfahren 4:55
03. Miramara 3:31
04. Bongiorno Giacomo 7:44
05. Fulmination 2:56
06. Flying Over the Limmat 13:03
07. Una tarantella fantastica 3:37
08. Ein Ton kommt selten allein… 3:35
09. Moving Time 5:05
10. What Is It You Wanted? 5:26
11. First Wave – Last Word 5:07
All compositions by Irène Schweizer & Pierre Favre.
Recorded live February 16, 17, 1990 at Rest. Schweizerbund, Bern.
Irène Schweizer – Piano
Pierre Favre – Drums, Percussion
 
Лог создания рипа
Exact Audio Copy V1.0 beta 3 from 29. August 2011
EAC extraction logfile from 29. May 2013, 14:18
Irène Schweizer & Pierre Favre / Irène Schweizer & Pierre Favre
Used drive : SlimtypeeNAU508 5 Adapter: 1 ID: 0
Read mode : Secure
Utilize accurate stream : Yes
Defeat audio cache : Yes
Make use of C2 pointers : No
Read offset correction : 6
Overread into Lead-In and Lead-Out : No
Fill up missing offset samples with silence : Yes
Delete leading and trailing silent blocks : No
Null samples used in CRC calculations : Yes
Used interface : Native Win32 interface for Win NT & 2000
Gap handling : Appended to previous track
Used output format : User Defined Encoder
Selected bitrate : 768 kBit/s
Quality : High
Add ID3 tag : No
Command line compressor : C:\Program Files (x86)\Exact Audio Copy\Flac\flac.exe
Additional command line options : -8 -V -T "ARTIST=%artist%" -T "TITLE=%title%" -T "ALBUM=%albumtitle%" -T "DATE=%year%" -T "TRACKNUMBER=%tracknr%" -T "GENRE=%genre%" -T "PERFORMER=%albuminterpret%" -T "COMPOSER=%composer%" %haslyrics%--tag-from-file=LYRICS="%lyricsfile%"%haslyrics% -T "ALBUMARTIST=%albumartist%" -T "DISCNUMBER=%cdnumber%" -T "TOTALDISCS=%totalcds%" -T "TOTALTRACKS=%numtracks%" -T "COMMENT=%comment%" %source% -o %dest%
TOC of the extracted CD
Track | Start | Length | Start sector | End sector
---------------------------------------------------------
1 | 0:00.00 | 4:38.62 | 0 | 20911
2 | 4:38.62 | 4:54.50 | 20912 | 43011
3 | 9:33.37 | 3:30.63 | 43012 | 58824
4 | 13:04.25 | 7:44.37 | 58825 | 93661
5 | 20:48.62 | 2:55.38 | 93662 | 106824
6 | 23:44.25 | 13:03.00 | 106825 | 165549
7 | 36:47.25 | 3:37.37 | 165550 | 181861
8 | 40:24.62 | 3:35.25 | 181862 | 198011
9 | 44:00.12 | 5:04.50 | 198012 | 220861
10 | 49:04.62 | 5:25.63 | 220862 | 245299
11 | 54:30.50 | 5:07.15 | 245300 | 268339
Track 1
Filename C:\EAC rips\01 - Cache-Cache.wav
Pre-gap length 0:00:02.00
Peak level 92.6 %
Extraction speed 2.2 X
Track quality 100.0 %
Test CRC 8F07090D
Copy CRC 8F07090D
Accurately ripped (confidence 3) [B1A46F1A] (AR v1)
Copy OK
Track 2
Filename C:\EAC rips\02 - Ein schnelles Verfahren.wav
Peak level 92.7 %
Extraction speed 2.4 X
Track quality 100.0 %
Test CRC EABDB7FC
Copy CRC EABDB7FC
Accurately ripped (confidence 3) [44C2CBD4] (AR v1)
Copy OK
Track 3
Filename C:\EAC rips\03 - Miramara.wav
Peak level 90.6 %
Extraction speed 2.1 X
Track quality 99.9 %
Test CRC 3E72B3E8
Copy CRC 3E72B3E8
Accurately ripped (confidence 3) [18486844] (AR v1)
Copy OK
Track 4
Filename C:\EAC rips\04 - Bongiorno Giacomo.wav
Peak level 92.4 %
Extraction speed 2.8 X
Track quality 99.9 %
Test CRC 237FFF24
Copy CRC 237FFF24
Accurately ripped (confidence 3) [03ED7E8F] (AR v1)
Copy OK
Track 5
Filename C:\EAC rips\05 - Fulmination.wav
Peak level 92.9 %
Extraction speed 2.9 X
Track quality 100.0 %
Test CRC D97CE297
Copy CRC D97CE297
Accurately ripped (confidence 3) [0E829D85] (AR v1)
Copy OK
Track 6
Filename C:\EAC rips\06 - Flying Over the Limmat.wav
Peak level 92.8 %
Extraction speed 3.7 X
Track quality 100.0 %
Test CRC 63BBC57A
Copy CRC 63BBC57A
Accurately ripped (confidence 3) [2C6AE884] (AR v1)
Copy OK
Track 7
Filename C:\EAC rips\07 - Una tarantella fantastica.wav
Peak level 92.6 %
Extraction speed 3.6 X
Track quality 100.0 %
Test CRC 629610FF
Copy CRC 629610FF
Accurately ripped (confidence 3) [A18C905A] (AR v1)
Copy OK
Track 8
Filename C:\EAC rips\08 - Ein Ton kommt selten allein....wav
Peak level 92.1 %
Extraction speed 3.7 X
Track quality 100.0 %
Test CRC AC251A78
Copy CRC AC251A78
Accurately ripped (confidence 3) [9E5B93A6] (AR v1)
Copy OK
Track 9
Filename C:\EAC rips\09 - Moving Time.wav
Peak level 92.9 %
Extraction speed 4.0 X
Track quality 100.0 %
Test CRC C087957E
Copy CRC C087957E
Accurately ripped (confidence 3) [94167B03] (AR v1)
Copy OK
Track 10
Filename C:\EAC rips\10 - What Is It You Wanted_.wav
Peak level 92.4 %
Extraction speed 4.2 X
Track quality 100.0 %
Test CRC 151FA2BD
Copy CRC 151FA2BD
Accurately ripped (confidence 3) [835ED99C] (AR v1)
Copy OK
Track 11
Filename C:\EAC rips\11 - First Wave - Last Word.wav
Peak level 92.4 %
Extraction speed 4.3 X
Track quality 100.0 %
Test CRC CDC5D396
Copy CRC CDC5D396
Accurately ripped (confidence 3) [80B32E97] (AR v1)
Copy OK
All tracks accurately ripped
No errors occurred
End of status report
---- CUETools DB Plugin V2.1.4
[CTDB TOCID: VWmWeR2KGHUQH7HL2PQYaiJY9FY-] found
Submit result: VWmWeR2KGHUQH7HL2PQYaiJY9FY- has been confirmed
Track | CTDB Status
1 | (1/1) Accurately ripped
2 | (1/1) Accurately ripped
3 | (1/1) Accurately ripped
4 | (1/1) Accurately ripped
5 | (1/1) Accurately ripped
6 | (1/1) Accurately ripped
7 | (1/1) Accurately ripped
8 | (1/1) Accurately ripped
9 | (1/1) Accurately ripped
10 | (1/1) Accurately ripped
11 | (1/1) Accurately ripped
==== Log checksum A05951EB81E3CE4C756EA7161EFE1C9BFB4981BC0DC1D4A98FAFFBBF126695D4 ====
 
Содержание индексной карты (.CUE)
REM GENRE Jazz
REM DATE 1992
REM DISCID 930DF90B
REM COMMENT "ExactAudioCopy v1.0b3"
PERFORMER "Irène Schweizer & Pierre Favre"
TITLE "Irène Schweizer & Pierre Favre"
FILE "01 - Cache-Cache.wav" WAVE
TRACK 01 AUDIO
TITLE "Cache-Cache"
PERFORMER "Irène Schweizer & Pierre Favre"
INDEX 01 00:00:00
FILE "02 - Ein schnelles Verfahren.wav" WAVE
TRACK 02 AUDIO
TITLE "Ein schnelles Verfahren"
PERFORMER "Irène Schweizer & Pierre Favre"
INDEX 01 00:00:00
FILE "03 - Miramara.wav" WAVE
TRACK 03 AUDIO
TITLE "Miramara"
PERFORMER "Irène Schweizer & Pierre Favre"
INDEX 01 00:00:00
FILE "04 - Bongiorno Giacomo.wav" WAVE
TRACK 04 AUDIO
TITLE "Bongiorno Giacomo"
PERFORMER "Irène Schweizer & Pierre Favre"
INDEX 01 00:00:00
FILE "05 - Fulmination.wav" WAVE
TRACK 05 AUDIO
TITLE "Fulmination"
PERFORMER "Irène Schweizer & Pierre Favre"
INDEX 01 00:00:00
FILE "06 - Flying Over the Limmat.wav" WAVE
TRACK 06 AUDIO
TITLE "Flying Over the Limmat"
PERFORMER "Irène Schweizer & Pierre Favre"
INDEX 01 00:00:00
FILE "07 - Una tarantella fantastica.wav" WAVE
TRACK 07 AUDIO
TITLE "Una tarantella fantastica"
PERFORMER "Irène Schweizer & Pierre Favre"
INDEX 01 00:00:00
FILE "08 - Ein Ton kommt selten allein....wav" WAVE
TRACK 08 AUDIO
TITLE "Ein Ton kommt selten allein..."
PERFORMER "Irène Schweizer & Pierre Favre"
INDEX 01 00:00:00
FILE "09 - Moving Time.wav" WAVE
TRACK 09 AUDIO
TITLE "Moving Time"
PERFORMER "Irène Schweizer & Pierre Favre"
INDEX 01 00:00:00
FILE "10 - What Is It You Wanted_.wav" WAVE
TRACK 10 AUDIO
TITLE "What Is It You Wanted?"
PERFORMER "Irène Schweizer & Pierre Favre"
INDEX 01 00:00:00
FILE "11 - First Wave - Last Word.wav" WAVE
TRACK 11 AUDIO
TITLE "First Wave - Last Word"
PERFORMER "Irène Schweizer & Pierre Favre"
INDEX 01 00:00:00
Any questions -> support@pro-jazz.com. По всем вопросам пишите -> support@pro-jazz.com
13:59
165
Нет комментариев. Ваш будет первым!