Вы используете незарегистрированную версию компонента "Вкладки"!

Поиск

(Free Improvisation) Henry Kaiser - Lemon Fish Tweezer - 1992, FLAC (tracks+.cue), lossless

(Free Improvisation) Henry Kaiser - Lemon Fish Tweezer - 1992, FLAC (tracks+.cue), lossless
Треклист:
Henry Kaiser / Lemon Fish Tweezer
Жанр: Free Improvisation
Страна-производитель диска: США
Год издания: 1992
Издатель (лейбл): Cuneiform Records
Номер по каталогу: RUNE 45
Страна: США
Аудиокодек: FLAC (*.flac)
Тип рипа: tracks+.cue
Битрейт аудио: lossless
Продолжительность: 1:15:49
Источник (релизер): моя пластинка
Наличие сканов в содержимом раздачи: да
Треклист:
1. Get Moose And Squirrel 2:35
2. Red Shadows 1:51
3. Aquirax Aida 4:16
4. Novelty Act 6:34
5. What The Dead Men Say 2:34
6. Tribute To John French 1:30
7. Kaiju Babylon 4:07
8. It's A Wonderful Life 24:19
9. Out Taco Sauce 2:11
10. Albondigas - Message From Space 1:07
11. Moonlight Mask 1:28
12. Null And Void 5:10
13. Bright Promises, Dismal Performance 1:57
14. Visions Of A New Age 1:25
15. The Nutmeg Of Consolation 1:28
16. Information Mechanics 6:11
17. Meet The Flintstones 6:58
 
Лог создания рипа
Exact Audio Copy V1.0 beta 3 from 29. August 2011
EAC extraction logfile from 4. June 2012, 23:45
Henry Kaiser / Lemon Fish Tweezer
Used drive : ASUS DRW-20B1LT Adapter: 2 ID: 0
Read mode : Secure
Utilize accurate stream : Yes
Defeat audio cache : Yes
Make use of C2 pointers : No
Read offset correction : 6
Overread into Lead-In and Lead-Out : No
Fill up missing offset samples with silence : Yes
Delete leading and trailing silent blocks : No
Null samples used in CRC calculations : Yes
Used interface : Installed external ASPI interface
Gap handling : Appended to previous track
Used output format : User Defined Encoder
Selected bitrate : 896 kBit/s
Quality : High
Add ID3 tag : No
Command line compressor : C:\Program Files\Exact Audio Copy\FLAC\FLAC.EXE
Additional command line options : -6 -V -T "ARTIST=%artist%" -T "TITLE=%title%" -T "ALBUM=%albumtitle%" -T "DATE=%year%" -T "TRACKNUMBER=%tracknr%" -T "GENRE=%genre%" -T "COMMENT=%comment%" -T "BAND=%albuminterpret%" -T "ALBUMARTIST=%albuminterpret%" -T "COMPOSER=%composer%" %haslyrics%--tag-from-file=LYRICS="%lyricsfile%"%haslyrics% -T "DISCNUMBER=%cdnumber%" -T "TOTALDISCS=%totalcds%" -T "TOTALTRACKS=%numtracks%" %hascover%--picture="%coverfile%"%hascover% %source% -o %dest%
TOC of the extracted CD
Track | Start | Length | Start sector | End sector
---------------------------------------------------------
1 | 0:00.00 | 2:35.30 | 0 | 11654
2 | 2:35.30 | 1:51.62 | 11655 | 20041
3 | 4:27.17 | 4:16.50 | 20042 | 39291
4 | 8:43.67 | 6:34.00 | 39292 | 68841
5 | 15:17.67 | 2:34.05 | 68842 | 80396
6 | 17:51.72 | 1:30.70 | 80397 | 87216
7 | 19:22.67 | 4:07.53 | 87217 | 105794
8 | 23:30.45 | 24:19.25 | 105795 | 215244
9 | 47:49.70 | 2:11.42 | 215245 | 225111
10 | 50:01.37 | 1:07.70 | 225112 | 230206
11 | 51:09.32 | 1:28.03 | 230207 | 236809
12 | 52:37.35 | 5:10.02 | 236810 | 260061
13 | 57:47.37 | 1:57.05 | 260062 | 268841
14 | 59:44.42 | 1:25.33 | 268842 | 275249
15 | 61:10.00 | 1:28.55 | 275250 | 281904
16 | 62:38.55 | 6:11.00 | 281905 | 309729
17 | 68:49.55 | 6:58.70 | 309730 | 341149
Track 1
Filename I:\Lemon Fish Tweezer\01 - Get Moose And Squirrel.wav
Pre-gap length 0:00:02.00
Peak level 93.4 %
Extraction speed 1.9 X
Track quality 100.0 %
Test CRC 1AE3756A
Copy CRC 1AE3756A
Accurately ripped (confidence 6) [9DC863C2] (AR v1)
Copy OK
Track 2
Filename I:\Lemon Fish Tweezer\02 - Red Shadows.wav
Pre-gap length 0:00:04.25
Peak level 85.2 %
Extraction speed 1.9 X
Track quality 100.0 %
Test CRC 5022AA64
Copy CRC 5022AA64
Accurately ripped (confidence 6) [A7A0AAFF] (AR v1)
Copy OK
Track 3
Filename I:\Lemon Fish Tweezer\03 - Aquirax Aida.wav
Pre-gap length 0:00:04.20
Peak level 98.8 %
Extraction speed 2.3 X
Track quality 100.0 %
Test CRC 368801BD
Copy CRC 368801BD
Accurately ripped (confidence 6) [D99B2347] (AR v1)
Copy OK
Track 4
Filename I:\Lemon Fish Tweezer\04 - Novelty Act.wav
Pre-gap length 0:00:04.22
Peak level 96.3 %
Extraction speed 2.7 X
Track quality 100.0 %
Test CRC 36AFFA9E
Copy CRC 36AFFA9E
Accurately ripped (confidence 6) [BB6CAC34] (AR v1)
Copy OK
Track 5
Filename I:\Lemon Fish Tweezer\05 - What The Dead Men Say.wav
Pre-gap length 0:00:04.25
Peak level 98.8 %
Extraction speed 2.5 X
Track quality 100.0 %
Test CRC A4187F2C
Copy CRC A4187F2C
Accurately ripped (confidence 6) [4750D9C2] (AR v1)
Copy OK
Track 6
Filename I:\Lemon Fish Tweezer\06 - Tribute To John French.wav
Pre-gap length 0:00:04.25
Peak level 97.9 %
Extraction speed 1.3 X
Track quality 99.8 %
Test CRC 2C1CD060
Copy CRC 2C1CD060
Accurately ripped (confidence 6) [217DA6E0] (AR v1)
Copy OK
Track 7
Filename I:\Lemon Fish Tweezer\07 - Kaiju Babylon.wav
Pre-gap length 0:00:04.22
Peak level 90.4 %
Extraction speed 2.9 X
Track quality 100.0 %
Test CRC F6638DD0
Copy CRC F6638DD0
Accurately ripped (confidence 6) [8ED5E166] (AR v1)
Copy OK
Track 8
Filename I:\Lemon Fish Tweezer\08 - It's A Wonderful Life.wav
Pre-gap length 0:00:04.23
Peak level 95.8 %
Extraction speed 1.4 X
Track quality 100.0 %
Test CRC DFBF19BB
Copy CRC DFBF19BB
Accurately ripped (confidence 5) [27B16743] (AR v1)
Copy OK
Track 9
Filename I:\Lemon Fish Tweezer\09 - Out Taco Sauce.wav
Pre-gap length 0:00:05.20
Peak level 98.8 %
Extraction speed 3.4 X
Track quality 100.0 %
Test CRC 8CDF9410
Copy CRC 8CDF9410
Accurately ripped (confidence 5) [193D2783] (AR v1)
Copy OK
Track 10
Filename I:\Lemon Fish Tweezer\10 - Albondigas-Message From Space.wav
Pre-gap length 0:00:04.27
Peak level 68.5 %
Extraction speed 2.8 X
Track quality 100.0 %
Test CRC 3436F7B2
Copy CRC 3436F7B2
Accurately ripped (confidence 6) [A7208397] (AR v1)
Copy OK
Track 11
Filename I:\Lemon Fish Tweezer\11 - Moonlight Mask.wav
Pre-gap length 0:00:04.26
Peak level 98.8 %
Extraction speed 3.1 X
Track quality 100.0 %
Test CRC 6D33ABEF
Copy CRC 6D33ABEF
Accurately ripped (confidence 6) [F0084BD3] (AR v1)
Copy OK
Track 12
Filename I:\Lemon Fish Tweezer\12 - Null And Void.wav
Pre-gap length 0:00:04.23
Peak level 98.8 %
Extraction speed 4.0 X
Track quality 100.0 %
Test CRC BA926BA8
Copy CRC BA926BA8
Accurately ripped (confidence 6) [8D8C5078] (AR v1)
Copy OK
Track 13
Filename I:\Lemon Fish Tweezer\13 - Bright Promises, Dismal Performance.wav
Pre-gap length 0:00:04.25
Peak level 94.2 %
Extraction speed 3.5 X
Track quality 100.0 %
Test CRC 7715F976
Copy CRC 7715F976
Accurately ripped (confidence 6) [EDC2D874] (AR v1)
Copy OK
Track 14
Filename I:\Lemon Fish Tweezer\14 - Visions Of A New Age.wav
Pre-gap length 0:00:04.22
Peak level 89.8 %
Extraction speed 3.2 X
Track quality 100.0 %
Test CRC 031E66ED
Copy CRC 031E66ED
Accurately ripped (confidence 6) [7627CFAB] (AR v1)
Copy OK
Track 15
Filename I:\Lemon Fish Tweezer\15 - The Nutmeg Of Consolation.wav
Pre-gap length 0:00:04.23
Peak level 87.5 %
Extraction speed 3.3 X
Track quality 100.0 %
Test CRC A4AA69F5
Copy CRC A4AA69F5
Accurately ripped (confidence 6) [5D17EA9F] (AR v1)
Copy OK
Track 16
Filename I:\Lemon Fish Tweezer\16 - Information Mechanics.wav
Pre-gap length 0:00:04.25
Peak level 90.0 %
Extraction speed 4.4 X
Track quality 100.0 %
Test CRC AD8ECD33
Copy CRC AD8ECD33
Accurately ripped (confidence 6) [2CD3ABD2] (AR v1)
Copy OK
Track 17
Filename I:\Lemon Fish Tweezer\17 - Meet The Flintstones.wav
Pre-gap length 0:00:04.25
Peak level 98.8 %
Extraction speed 4.6 X
Track quality 100.0 %
Test CRC 975718FE
Copy CRC 975718FE
Accurately ripped (confidence 6) [C2AF4969] (AR v1)
Copy OK
All tracks accurately ripped
No errors occurred
End of status report
---- CUETools DB Plugin V2.1.3
[CTDB TOCID: Wcn3Uox29DjtADOKCkwlHnVZcRQ-] disk not present in database, Submit result: Wcn3Uox29DjtADOKCkwlHnVZcRQ- has been uploaded
==== Log checksum CF1C3315A476F66BCC6D2C6A7CEFCD7E6B4CAB31EE78E0A914363581959744DA ====
 
Содержание индексной карты (.CUE)
REM GENRE "Progressive Rock"
REM DATE 1992
REM DISCID EA11C411
REM COMMENT "ExactAudioCopy v1.0b3"
CATALOG 0000000000000
PERFORMER "Henry Kaiser"
TITLE "Lemon Fish Tweezer"
FILE "01 - Get Moose And Squirrel.wav" WAVE
TRACK 01 AUDIO
TITLE "Get Moose And Squirrel"
PERFORMER "Henry Kaiser"
INDEX 01 00:00:00
TRACK 02 AUDIO
TITLE "Red Shadows"
PERFORMER "Henry Kaiser"
INDEX 00 02:31:05
FILE "02 - Red Shadows.wav" WAVE
INDEX 01 00:00:00
TRACK 03 AUDIO
TITLE "Aquirax Aida"
PERFORMER "Henry Kaiser"
INDEX 00 01:47:42
FILE "03 - Aquirax Aida.wav" WAVE
INDEX 01 00:00:00
TRACK 04 AUDIO
TITLE "Novelty Act"
PERFORMER "Henry Kaiser"
INDEX 00 04:12:28
FILE "04 - Novelty Act.wav" WAVE
INDEX 01 00:00:00
TRACK 05 AUDIO
TITLE "What The Dead Men Say"
PERFORMER "Henry Kaiser"
INDEX 00 06:29:50
FILE "05 - What The Dead Men Say.wav" WAVE
INDEX 01 00:00:00
TRACK 06 AUDIO
TITLE "Tribute To John French"
PERFORMER "Henry Kaiser"
INDEX 00 02:29:55
FILE "06 - Tribute To John French.wav" WAVE
INDEX 01 00:00:00
TRACK 07 AUDIO
TITLE "Kaiju Babylon"
PERFORMER "Henry Kaiser"
INDEX 00 01:26:48
FILE "07 - Kaiju Babylon.wav" WAVE
INDEX 01 00:00:00
TRACK 08 AUDIO
TITLE "It's A Wonderful Life"
PERFORMER "Henry Kaiser"
INDEX 00 04:03:30
FILE "08 - It's A Wonderful Life.wav" WAVE
INDEX 01 00:00:00
TRACK 09 AUDIO
TITLE "Out Taco Sauce"
PERFORMER "Henry Kaiser"
INDEX 00 24:14:05
FILE "09 - Out Taco Sauce.wav" WAVE
INDEX 01 00:00:00
TRACK 10 AUDIO
TITLE "Albondigas-Message From Space"
PERFORMER "Henry Kaiser"
INDEX 00 02:07:15
FILE "10 - Albondigas-Message From Space.wav" WAVE
INDEX 01 00:00:00
TRACK 11 AUDIO
TITLE "Moonlight Mask"
PERFORMER "Henry Kaiser"
INDEX 00 01:03:44
FILE "11 - Moonlight Mask.wav" WAVE
INDEX 01 00:00:00
TRACK 12 AUDIO
TITLE "Null And Void"
PERFORMER "Henry Kaiser"
INDEX 00 01:23:55
FILE "12 - Null And Void.wav" WAVE
INDEX 01 00:00:00
TRACK 13 AUDIO
TITLE "Bright Promises, Dismal Performance"
PERFORMER "Henry Kaiser"
INDEX 00 05:05:52
FILE "13 - Bright Promises, Dismal Performance.wav" WAVE
INDEX 01 00:00:00
TRACK 14 AUDIO
TITLE "Visions Of A New Age"
PERFORMER "Henry Kaiser"
INDEX 00 01:52:58
FILE "14 - Visions Of A New Age.wav" WAVE
INDEX 01 00:00:00
TRACK 15 AUDIO
TITLE "The Nutmeg Of Consolation"
PERFORMER "Henry Kaiser"
INDEX 00 01:21:10
FILE "15 - The Nutmeg Of Consolation.wav" WAVE
INDEX 01 00:00:00
TRACK 16 AUDIO
TITLE "Information Mechanics"
PERFORMER "Henry Kaiser"
INDEX 00 01:24:30
FILE "16 - Information Mechanics.wav" WAVE
INDEX 01 00:00:00
TRACK 17 AUDIO
TITLE "Meet The Flintstones"
PERFORMER "Henry Kaiser"
INDEX 00 06:06:50
FILE "17 - Meet The Flintstones.wav" WAVE
INDEX 01 00:00:00
 
Об альбоме (сборнике)
A Collection Of Henry Kaiser's Solo Guitar Improvisations, 1973-1991
Track 1 recorded Summer 1991 in Oakland, studio track recorded for this compilation
Track 2 recorded Spring 1987 in Oakland, previously unreleased
Track 3 and 16 recorded live Summer 1979 in Berkeley, from Outside Pleasure
Track 4 recorded live Autumn 1987 in San Francisco, previously unreleased
Track 5 recorded Summer 1981 in North Hollywood, from Aloha
Track 6 recorded Winter 1990 in Oakland, previously unreleased
Track 7 recorded Winter 1976 in Cambridge, previously unreleased
Track 8 recorded Summer 1984, from It's A Wonderful Life
Track 9 recorded Autumn 1988 in Oakland, from Popular Science
Track 10 recorded Spring 1978 in Carmel, from Daredevils
Track 11 recorded Spring 1983 in San Francisco, previously unreleased studio track for Who Needs Enemies ?
Track 12 recorded Winter 1980 in San Francisco, previously unreleased studio track recorded as a test for Aloha
Track 13 recorded Winter 1987 in Oakland, previously unreleased studio track recorded for Devil in The Drain
Track 14 recorded Spring 1973 in Cambridge, previously unreleased
Track 15 recorded Spring 1985 in Oakland, previously unreleased studio track from Secrets And Mysteries TV soundtrack
Track 17 recorded Autumn 1991 in Berkeley, studio track recorded for this compilation
All tracks recorded without overdubbing
Cuneiform Records писал(а):
Lemon Fish Tweezer is the definitive Henry Kaiser solo guitar disc! We gave Henry carte blanche to make what he felt represented his best work, and the result is this 75' disc of incredible guitar work. Some tracks are from (long out of print) lps, many tracks are previously unreleased, and two were recorded especially for this set. This truly represents the best aspects of his solo work.
 
Состав
Henry Kaiser: guitars, voice (17)
Any questions -> support@pro-jazz.com. По всем вопросам пишите -> support@pro-jazz.com
01:27
143
Нет комментариев. Ваш будет первым!