Вы используете незарегистрированную версию компонента "Вкладки"!

Поиск

(Free Improvisation, Hat Hut Records) Steve Lacy & Brion Gysin - Songs - 2006 (1981), FLAC (tracks+.cue), lossless

(Free Improvisation, Hat Hut Records) Steve Lacy & Brion Gysin - Songs - 2006 (1981), FLAC (tracks+.cue), lossless
Треклист:
Steve Lacy & Brion Gysin / Songs
Жанр: Free Improvisation, Hat Hut Records
Страна-производитель диска: Switzerland
Год издания: 2006 (1981)
Издатель (лейбл): Hat Hut Records
Номер по каталогу: hatOLOGY 625
Аудиокодек: FLAC (*.flac)
Тип рипа: tracks+.cue
Битрейт аудио: lossless
Продолжительность: 1:03:40
Источник (релизер): Max Monteiro
Наличие сканов в содержимом раздачи: да
Треклист:
01. Gay Paree Bop 9:31
02. Nowhere Street 11:50
03. Somebody Special 9:17
04. Luvzya 7:05
05. Keep the Change 7:15
Permutations
06. Junk Is No Good Baby 1:47
07. Kick That Habit Man 0:52
08. I Don’t Work You Dig 1:43
09. Blue Baboon 5:00
10. Nowhere Street 1 (incomplete) 9:19
All compositions except « Luvzya » by Steve Lacy. All words by Brion Gysin. « Luvzya » by Oliver Johnson.
Recorded January 28th & 29th, 1981 in Paris.
Steve Lacy – Soprano Saxophone, Voice on « Blue Baboon »
Steve Potts – Alto & Soprano Saxophones
Bobby Few – Piano
Irène Aebi – Violin & Voice
Jean-Jacques Avenel – Double Bass
Oliver Johnson – Drums
Brion Gysin – Voice on « Permutations » and « Luvzya »
 
Лог создания рипа
Exact Audio Copy V1.0 beta 3 from 29. August 2011
EAC extraction logfile from 14. June 2013, 21:32
Steve Lacy & Brion Gysin / Songs
Used drive : SlimtypeeNAU508 5 Adapter: 1 ID: 0
Read mode : Secure
Utilize accurate stream : Yes
Defeat audio cache : Yes
Make use of C2 pointers : No
Read offset correction : 6
Overread into Lead-In and Lead-Out : No
Fill up missing offset samples with silence : Yes
Delete leading and trailing silent blocks : No
Null samples used in CRC calculations : Yes
Used interface : Native Win32 interface for Win NT & 2000
Gap handling : Appended to previous track
Used output format : User Defined Encoder
Selected bitrate : 768 kBit/s
Quality : High
Add ID3 tag : No
Command line compressor : C:\Program Files (x86)\Exact Audio Copy\Flac\flac.exe
Additional command line options : -8 -V -T "ARTIST=%artist%" -T "TITLE=%title%" -T "ALBUM=%albumtitle%" -T "DATE=%year%" -T "TRACKNUMBER=%tracknr%" -T "GENRE=%genre%" -T "PERFORMER=%albuminterpret%" -T "COMPOSER=%composer%" %haslyrics%--tag-from-file=LYRICS="%lyricsfile%"%haslyrics% -T "ALBUMARTIST=%albumartist%" -T "DISCNUMBER=%cdnumber%" -T "TOTALDISCS=%totalcds%" -T "TOTALTRACKS=%numtracks%" -T "COMMENT=%comment%" %source% -o %dest%
TOC of the extracted CD
Track | Start | Length | Start sector | End sector
---------------------------------------------------------
1 | 0:00.00 | 9:30.68 | 0 | 42817
2 | 9:30.68 | 11:49.55 | 42818 | 96047
3 | 21:20.48 | 9:17.36 | 96048 | 137858
4 | 30:38.09 | 7:04.38 | 137859 | 169696
5 | 37:42.47 | 7:14.57 | 169697 | 202303
6 | 44:57.29 | 1:47.13 | 202304 | 210341
7 | 46:44.42 | 0:52.03 | 210342 | 214244
8 | 47:36.45 | 1:43.37 | 214245 | 222006
9 | 49:20.07 | 5:00.32 | 222007 | 244538
10 | 54:20.39 | 9:19.37 | 244539 | 286500
Track 1
Filename C:\EAC rips\01 - Gay Paree Bop.wav
Pre-gap length 0:00:02.00
Peak level 98.9 %
Extraction speed 2.5 X
Track quality 100.0 %
Test CRC 008C827F
Copy CRC 008C827F
Track not present in AccurateRip database
Copy OK
Track 2
Filename C:\EAC rips\02 - Nowhere Street.wav
Pre-gap length 0:00:03.63
Peak level 98.9 %
Extraction speed 3.1 X
Track quality 100.0 %
Test CRC FD9FF7BA
Copy CRC FD9FF7BA
Track not present in AccurateRip database
Copy OK
Track 3
Filename C:\EAC rips\03 - Somebody Special.wav
Pre-gap length 0:00:06.44
Peak level 95.1 %
Extraction speed 3.5 X
Track quality 100.0 %
Test CRC 76B57390
Copy CRC 76B57390
Track not present in AccurateRip database
Copy OK
Track 4
Filename C:\EAC rips\04 - Luvzya.wav
Pre-gap length 0:00:02.41
Peak level 98.9 %
Extraction speed 3.8 X
Track quality 100.0 %
Test CRC 6474388A
Copy CRC 6474388A
Track not present in AccurateRip database
Copy OK
Track 5
Filename C:\EAC rips\05 - Keep the Change.wav
Pre-gap length 0:00:04.42
Peak level 98.9 %
Extraction speed 4.1 X
Track quality 100.0 %
Test CRC CC19A023
Copy CRC CC19A023
Track not present in AccurateRip database
Copy OK
Track 6
Filename C:\EAC rips\06 - Permutations - Junk Is No Good Baby.wav
Pre-gap length 0:00:06.24
Peak level 90.3 %
Extraction speed 3.3 X
Track quality 100.0 %
Test CRC DB8D234A
Copy CRC DB8D234A
Track not present in AccurateRip database
Copy OK
Track 7
Filename C:\EAC rips\07 - Permutations - Kick That Habit Man.wav
Peak level 91.4 %
Extraction speed 2.6 X
Track quality 100.0 %
Test CRC FFC33531
Copy CRC FFC33531
Track not present in AccurateRip database
Copy OK
Track 8
Filename C:\EAC rips\08 - Permutations - I Don't Work You Dig.wav
Peak level 95.1 %
Extraction speed 3.4 X
Track quality 100.0 %
Test CRC 10F07678
Copy CRC 10F07678
Track not present in AccurateRip database
Copy OK
Track 9
Filename C:\EAC rips\09 - Blue Baboon.wav
Pre-gap length 0:00:05.02
Peak level 98.9 %
Extraction speed 3.0 X
Track quality 99.9 %
Test CRC 796F0A1B
Copy CRC 796F0A1B
Track not present in AccurateRip database
Copy OK
Track 10
Filename C:\EAC rips\10 - Nowhere Street 1 (incomplete).wav
Pre-gap length 0:00:04.32
Peak level 98.9 %
Extraction speed 2.4 X
Track quality 100.0 %
Test CRC FDAAA4A2
Copy CRC FDAAA4A2
Track not present in AccurateRip database
Copy OK
None of the tracks are present in the AccurateRip database
No errors occurred
End of status report
---- CUETools DB Plugin V2.1.4
[CTDB TOCID: WLUeCtVSzKzhWPCkoSnhhDzwJAg-] found
Submit result: WLUeCtVSzKzhWPCkoSnhhDzwJAg- has been confirmed
Track | CTDB Status
1 | (4/4) Accurately ripped
2 | (4/4) Accurately ripped
3 | (4/4) Accurately ripped
4 | (4/4) Accurately ripped
5 | (4/4) Accurately ripped
6 | (4/4) Accurately ripped
7 | (4/4) Accurately ripped
8 | (4/4) Accurately ripped
9 | (3/4) Accurately ripped
10 | (4/4) Accurately ripped
==== Log checksum DA98FF6AF1D20D60CE5DBA8CCB2DB7C15701B4618718C06C8102070D4A96942D ====
 
Содержание индексной карты (.CUE)
REM GENRE Jazz
REM DATE 2006
REM DISCID 990EEC0A
REM COMMENT "ExactAudioCopy v1.0b3"
PERFORMER "Steve Lacy & Brion Gysin"
TITLE "Songs"
FILE "01 - Gay Paree Bop.wav" WAVE
TRACK 01 AUDIO
TITLE "Gay Paree Bop"
PERFORMER "Steve Lacy & Brion Gysin"
ISRC CH1310500704
INDEX 01 00:00:00
TRACK 02 AUDIO
TITLE "Nowhere Street"
PERFORMER "Steve Lacy & Brion Gysin"
ISRC CH1310500705
INDEX 00 09:27:05
FILE "02 - Nowhere Street.wav" WAVE
INDEX 01 00:00:00
TRACK 03 AUDIO
TITLE "Somebody Special"
PERFORMER "Steve Lacy & Brion Gysin"
ISRC CH1310500706
INDEX 00 11:43:11
FILE "03 - Somebody Special.wav" WAVE
INDEX 01 00:00:00
TRACK 04 AUDIO
TITLE "Luvzya"
PERFORMER "Steve Lacy & Brion Gysin"
ISRC CH1310500707
INDEX 00 09:14:70
FILE "04 - Luvzya.wav" WAVE
INDEX 01 00:00:00
TRACK 05 AUDIO
TITLE "Keep the Change"
PERFORMER "Steve Lacy & Brion Gysin"
ISRC CH1310500708
INDEX 00 06:59:71
FILE "05 - Keep the Change.wav" WAVE
INDEX 01 00:00:00
TRACK 06 AUDIO
TITLE "Permutations: Junk Is No Good Baby"
PERFORMER "Steve Lacy & Brion Gysin"
ISRC CH1310500709
INDEX 00 07:08:33
FILE "06 - Permutations - Junk Is No Good Baby.wav" WAVE
INDEX 01 00:00:00
FILE "07 - Permutations - Kick That Habit Man.wav" WAVE
TRACK 07 AUDIO
TITLE "Permutations: Kick That Habit Man"
PERFORMER "Steve Lacy & Brion Gysin"
ISRC CH1310500710
INDEX 01 00:00:00
FILE "08 - Permutations - I Don't Work You Dig.wav" WAVE
TRACK 08 AUDIO
TITLE "Permutations: I Don't Work You Dig"
PERFORMER "Steve Lacy & Brion Gysin"
ISRC CH1310500711
INDEX 01 00:00:00
TRACK 09 AUDIO
TITLE "Blue Baboon"
PERFORMER "Steve Lacy & Brion Gysin"
ISRC CH1310500712
INDEX 00 01:38:35
FILE "09 - Blue Baboon.wav" WAVE
INDEX 01 00:00:00
TRACK 10 AUDIO
TITLE "Nowhere Street 1 (incomplete)"
PERFORMER "Steve Lacy & Brion Gysin"
ISRC CH1310500713
INDEX 00 04:56:00
FILE "10 - Nowhere Street 1 (incomplete).wav" WAVE
INDEX 01 00:00:00
Any questions -> support@pro-jazz.com. По всем вопросам пишите -> support@pro-jazz.com
15:06
216
Нет комментариев. Ваш будет первым!