Вы используете незарегистрированную версию компонента "Вкладки"!

Поиск

(Free Improvisation, Hat Hut Records) Samuel Blaser Quartet (Marc Ducret, Baenz Oester, Gerald Cleaver) - Boundless - 2011, FLAC (tracks+.cue), lossless

(Free Improvisation, Hat Hut Records) Samuel Blaser Quartet (Marc Ducret, Baenz Oester, Gerald Cleaver) - Boundless - 2011, FLAC (tracks+.cue), lossless
Треклист:
Samuel Blaser Quartet / Boundless
Жанр: Free Improvisation, Hat Hut Records
Страна-производитель диска: Switzerland
Год издания: 2011
Издатель (лейбл): Hat Hut Records
Номер по каталогу: hatOLOGY 706
Аудиокодек: FLAC (*.flac)
Тип рипа: tracks+.cue
Битрейт аудио: lossless
Продолжительность: 1:02:35
Источник (релизер): Max Monteiro
Наличие сканов в содержимом раздачи: нет
Треклист:
1. Boundless Suite, Part 1 (15:12)
2. Boundless Suite, Part 2 (17:48)
3. Boundless Suite, Part 3 (16:11)
4. Boundless Suite, Part 4 (13:23)
Boundless Suite 1-4 composed by Samuel Blaser.
Recorded live October 7th, 8th & 9th, 2010 in Lausanne, Zürich and Basel, Switzerland.
Samuel Blaser – Trombone
Marc Ducret – Guitar
Bänz Oester – Double Bass
Gerald Cleaver – Drums
 
Лог создания рипа
Exact Audio Copy V1.0 beta 3 from 29. August 2011
EAC extraction logfile from 1. June 2013, 14:03
Samuel Blaser Quartet / Boundless
Used drive : SlimtypeeNAU508 5 Adapter: 1 ID: 0
Read mode : Secure
Utilize accurate stream : Yes
Defeat audio cache : Yes
Make use of C2 pointers : No
Read offset correction : 6
Overread into Lead-In and Lead-Out : No
Fill up missing offset samples with silence : Yes
Delete leading and trailing silent blocks : No
Null samples used in CRC calculations : Yes
Used interface : Native Win32 interface for Win NT & 2000
Gap handling : Appended to previous track
Used output format : User Defined Encoder
Selected bitrate : 768 kBit/s
Quality : High
Add ID3 tag : No
Command line compressor : C:\Program Files (x86)\Exact Audio Copy\Flac\flac.exe
Additional command line options : -8 -V -T "ARTIST=%artist%" -T "TITLE=%title%" -T "ALBUM=%albumtitle%" -T "DATE=%year%" -T "TRACKNUMBER=%tracknr%" -T "GENRE=%genre%" -T "PERFORMER=%albuminterpret%" -T "COMPOSER=%composer%" %haslyrics%--tag-from-file=LYRICS="%lyricsfile%"%haslyrics% -T "ALBUMARTIST=%albumartist%" -T "DISCNUMBER=%cdnumber%" -T "TOTALDISCS=%totalcds%" -T "TOTALTRACKS=%numtracks%" -T "COMMENT=%comment%" %source% -o %dest%
TOC of the extracted CD
Track | Start | Length | Start sector | End sector
---------------------------------------------------------
1 | 0:00.00 | 15:12.33 | 0 | 68432
2 | 15:12.33 | 17:48.00 | 68433 | 148532
3 | 33:00.33 | 16:11.17 | 148533 | 221374
4 | 49:11.50 | 13:23.25 | 221375 | 281624
Track 1
Filename C:\EAC rips\01 - Boundless Suite, Part 1.wav
Pre-gap length 0:00:02.00
Peak level 98.8 %
Extraction speed 1.3 X
Track quality 100.0 %
Test CRC 2CD0754A
Copy CRC 2CD0754A
Track not present in AccurateRip database
Copy OK
Track 2
Filename C:\EAC rips\02 - Boundless Suite, Part 2.wav
Peak level 97.9 %
Extraction speed 1.8 X
Track quality 100.0 %
Test CRC 7EE81157
Copy CRC 7EE81157
Track not present in AccurateRip database
Copy OK
Track 3
Filename C:\EAC rips\03 - Boundless Suite, Part 3.wav
Peak level 95.6 %
Extraction speed 2.1 X
Track quality 100.0 %
Test CRC 4778FD2F
Copy CRC 4778FD2F
Track not present in AccurateRip database
Copy OK
Track 4
Filename C:\EAC rips\04 - Boundless Suite, Part 4.wav
Peak level 98.8 %
Extraction speed 2.4 X
Track quality 100.0 %
Test CRC 00B631A3
Copy CRC 00B631A3
Track not present in AccurateRip database
Copy OK
None of the tracks are present in the AccurateRip database
No errors occurred
End of status report
---- CUETools DB Plugin V2.1.4
[CTDB TOCID: y9284RwPe77RZviMbQHsKwx5vsI-] disk not present in database
Submit result: y9284RwPe77RZviMbQHsKwx5vsI- has been uploaded
==== Log checksum 876BFB41A2420E5ED3CA6F42A109794E8DA0C20E2874A9E3560ACD6864046877 ====
 
Содержание индексной карты (.CUE)
REM GENRE Jazz
REM DATE 2011
REM DISCID 370EAB04
REM COMMENT "ExactAudioCopy v1.0b3"
PERFORMER "Samuel Blaser Quartet"
TITLE "Boundless"
FILE "01 - Boundless Suite, Part 1.wav" WAVE
TRACK 01 AUDIO
TITLE "Boundless Suite, Part 1"
PERFORMER "Samuel Blaser Quartet"
ISRC CH1311101285
INDEX 01 00:00:00
FILE "02 - Boundless Suite, Part 2.wav" WAVE
TRACK 02 AUDIO
TITLE "Boundless Suite, Part 2"
PERFORMER "Samuel Blaser Quartet"
ISRC CH1311101286
INDEX 01 00:00:00
FILE "03 - Boundless Suite, Part 3.wav" WAVE
TRACK 03 AUDIO
TITLE "Boundless Suite, Part 3"
PERFORMER "Samuel Blaser Quartet"
ISRC CH1311101287
INDEX 01 00:00:00
FILE "04 - Boundless Suite, Part 4.wav" WAVE
TRACK 04 AUDIO
TITLE "Boundless Suite, Part 4"
PERFORMER "Samuel Blaser Quartet"
ISRC CH1311101288
INDEX 01 00:00:00
Доп. информация: If you prefer the WEB version, you can find it here.
По всем вопросам пишите личное сообщение пользователю M0p94ok.
14:07
186
Нет комментариев. Ваш будет первым!