Вы используете незарегистрированную версию компонента "Вкладки"!

Поиск

(Free Improvisation, Fresh Sound New Talent) Nicolas Masson (w/ Russ Johnson, Eivind Opsvik, Gerald Cleaver) - Yellow (A Little Orange) - 2006, FLAC (tracks+.cue), lossless

(Free Improvisation, Fresh Sound New Talent) Nicolas Masson (w/ Russ Johnson, Eivind Opsvik, Gerald Cleaver) - Yellow (A Little Orange) - 2006, FLAC (tracks+.cue), lossless
Треклист:
Nicolas Masson / Yellow (A Little Orange)
Жанр: Free Improvisation, Fresh Sound New Talent
Страна-производитель диска: Spain
Год издания: 2006
Издатель (лейбл): Fresh Sound New Talent
Номер по каталогу: FSNT 261
Аудиокодек: FLAC (*.flac)
Тип рипа: tracks+.cue
Битрейт аудио: lossless
Продолжительность: 1:01:18
Источник (релизер): Max Monteiro
Наличие сканов в содержимом раздачи: нет
Треклист:
1. Good Buddy 7:05
2. Yellow (A Little Orange) 7:33
3. Zelig 5:05
4. Gingko 5:20
5. Sleepless 8:08
6. Shabu 6:27
7. Spurv 6:06
8. Gnarly 7:35
9. So Long 8:00
All songs composed by Nicolas Masson.
Recorded at AXIS Studios in Geneva (Switzerland), October 31 & November 1, 2004.
Nicolas Masson – Tenor Sax, Bass Clarinet
Russ Johnson – Trumpet
Eivind Opsvik – Acoustic Bass
Gerald Cleaver – Drums
 
Лог создания рипа
Exact Audio Copy V1.0 beta 3 from 29. August 2011
EAC extraction logfile from 20. September 2013, 22:04
Nicolas Masson / Yellow (A Little Orange)
Used drive : SlimtypeeNAU508 5 Adapter: 1 ID: 0
Read mode : Secure
Utilize accurate stream : Yes
Defeat audio cache : Yes
Make use of C2 pointers : No
Read offset correction : 6
Overread into Lead-In and Lead-Out : No
Fill up missing offset samples with silence : Yes
Delete leading and trailing silent blocks : No
Null samples used in CRC calculations : Yes
Used interface : Native Win32 interface for Win NT & 2000
Gap handling : Appended to previous track
Used output format : User Defined Encoder
Selected bitrate : 768 kBit/s
Quality : High
Add ID3 tag : No
Command line compressor : C:\Program Files (x86)\Exact Audio Copy\Flac\flac.exe
Additional command line options : -8 -V -T "ARTIST=%artist%" -T "TITLE=%title%" -T "ALBUM=%albumtitle%" -T "DATE=%year%" -T "TRACKNUMBER=%tracknr%" -T "GENRE=%genre%" -T "PERFORMER=%albuminterpret%" -T "COMPOSER=%composer%" %haslyrics%--tag-from-file=LYRICS="%lyricsfile%"%haslyrics% -T "ALBUMARTIST=%albumartist%" -T "DISCNUMBER=%cdnumber%" -T "TOTALDISCS=%totalcds%" -T "TOTALTRACKS=%numtracks%" -T "COMMENT=%comment%" %source% -o %dest%
TOC of the extracted CD
Track | Start | Length | Start sector | End sector
---------------------------------------------------------
1 | 0:00.00 | 7:05.00 | 0 | 31874
2 | 7:05.00 | 7:32.68 | 31875 | 65842
3 | 14:37.68 | 5:04.46 | 65843 | 88688
4 | 19:42.39 | 5:19.52 | 88689 | 112665
5 | 25:02.16 | 8:07.74 | 112666 | 149264
6 | 33:10.15 | 6:26.65 | 149265 | 178279
7 | 39:37.05 | 6:06.32 | 178280 | 205761
8 | 45:43.37 | 7:34.43 | 205762 | 239854
9 | 53:18.05 | 8:00.01 | 239855 | 275855
Track 1
Filename C:\EAC rips\01 - Good Buddy.wav
Pre-gap length 0:00:02.00
Peak level 97.6 %
Extraction speed 2.3 X
Track quality 100.0 %
Test CRC 4DB950D5
Copy CRC 4DB950D5
Track not present in AccurateRip database
Copy OK
Track 2
Filename C:\EAC rips\02 - Yellow (A Little Orange).wav
Pre-gap length 0:00:00.32
Peak level 97.8 %
Extraction speed 2.7 X
Track quality 100.0 %
Test CRC A58E999F
Copy CRC A58E999F
Track not present in AccurateRip database
Copy OK
Track 3
Filename C:\EAC rips\03 - Zelig.wav
Pre-gap length 0:00:01.52
Peak level 96.8 %
Extraction speed 3.0 X
Track quality 100.0 %
Test CRC B9FA63CF
Copy CRC B9FA63CF
Track not present in AccurateRip database
Copy OK
Track 4
Filename C:\EAC rips\04 - Gingko.wav
Peak level 97.6 %
Extraction speed 2.7 X
Track quality 99.9 %
Test CRC B558D88F
Copy CRC B558D88F
Track not present in AccurateRip database
Copy OK
Track 5
Filename C:\EAC rips\05 - Sleepless.wav
Peak level 98.1 %
Extraction speed 3.6 X
Track quality 100.0 %
Test CRC F8C93C67
Copy CRC F8C93C67
Track not present in AccurateRip database
Copy OK
Track 6
Filename C:\EAC rips\06 - Shabu.wav
Peak level 94.0 %
Extraction speed 3.7 X
Track quality 100.0 %
Test CRC C1203E55
Copy CRC C1203E55
Track not present in AccurateRip database
Copy OK
Track 7
Filename C:\EAC rips\07 - Spurv.wav
Peak level 97.8 %
Extraction speed 3.9 X
Track quality 100.0 %
Test CRC 577D9A91
Copy CRC 577D9A91
Track not present in AccurateRip database
Copy OK
Track 8
Filename C:\EAC rips\08 - Gnarly.wav
Peak level 98.3 %
Extraction speed 4.2 X
Track quality 100.0 %
Test CRC 78ED2E28
Copy CRC 78ED2E28
Track not present in AccurateRip database
Copy OK
Track 9
Filename C:\EAC rips\09 - So Long.wav
Peak level 96.1 %
Extraction speed 4.5 X
Track quality 100.0 %
Test CRC E57E1F09
Copy CRC E57E1F09
Track not present in AccurateRip database
Copy OK
None of the tracks are present in the AccurateRip database
No errors occurred
End of status report
---- CUETools DB Plugin V2.1.4
[CTDB TOCID: y.wFAdYKl7RPg3Z3oCIERwbMXqQ-] disk not present in database
Submit result: y.wFAdYKl7RPg3Z3oCIERwbMXqQ- has been uploaded
==== Log checksum 98033BBF465E09A29C9C1674666EF4EC6873627B48DBF8BC92922E07957AF25D ====
 
Содержание индексной карты (.CUE)
REM GENRE Jazz
REM DATE 2006
REM DISCID 800E5E09
REM COMMENT "ExactAudioCopy v1.0b3"
PERFORMER "Nicolas Masson"
TITLE "Yellow (A Little Orange)"
FILE "01 - Good Buddy.wav" WAVE
TRACK 01 AUDIO
TITLE "Good Buddy"
PERFORMER "Nicolas Masson"
ISRC ES7710526101
INDEX 01 00:00:00
TRACK 02 AUDIO
TITLE "Yellow (A Little Orange)"
PERFORMER "Nicolas Masson"
ISRC ES7710526102
INDEX 00 07:04:43
FILE "02 - Yellow (A Little Orange).wav" WAVE
INDEX 01 00:00:00
TRACK 03 AUDIO
TITLE "Zelig"
PERFORMER "Nicolas Masson"
ISRC ES7710526103
INDEX 00 07:31:16
FILE "03 - Zelig.wav" WAVE
INDEX 01 00:00:00
FILE "04 - Gingko.wav" WAVE
TRACK 04 AUDIO
TITLE "Gingko"
PERFORMER "Nicolas Masson"
ISRC ES7710526104
INDEX 01 00:00:00
FILE "05 - Sleepless.wav" WAVE
TRACK 05 AUDIO
TITLE "Sleepless"
PERFORMER "Nicolas Masson"
ISRC ES7710526105
INDEX 01 00:00:00
FILE "06 - Shabu.wav" WAVE
TRACK 06 AUDIO
TITLE "Shabu"
PERFORMER "Nicolas Masson"
ISRC ES7710526106
INDEX 01 00:00:00
FILE "07 - Spurv.wav" WAVE
TRACK 07 AUDIO
TITLE "Spurv"
PERFORMER "Nicolas Masson"
ISRC ES7710526107
INDEX 01 00:00:00
FILE "08 - Gnarly.wav" WAVE
TRACK 08 AUDIO
TITLE "Gnarly"
PERFORMER "Nicolas Masson"
ISRC ES7710526108
INDEX 01 00:00:00
FILE "09 - So Long.wav" WAVE
TRACK 09 AUDIO
TITLE "So Long"
PERFORMER "Nicolas Masson"
ISRC ES7710526109
INDEX 01 00:00:00
Any questions -> support@pro-jazz.com. По всем вопросам пишите -> support@pro-jazz.com
18:22
151
Нет комментариев. Ваш будет первым!