Вы используете незарегистрированную версию компонента "Вкладки"!

Поиск

(Free Improvisation, Free Jazz) Sam Rivers, Adam Rudolph, Harris Eisenstadt - Vista - 2004, FLAC (image+.cue), lossless

(Free Improvisation, Free Jazz) Sam Rivers, Adam Rudolph, Harris Eisenstadt - Vista - 2004, FLAC (image+.cue), lossless
Треклист:
Sam Rivers, Adam Rudolph, Harris Eisenstadt / Vista
Жанр: Free Improvisation, Free Jazz
Страна-производитель диска: US
Год издания диска: 2004
Издатель (лейбл): META Records
Номер по каталогу: 9
Аудиокодек: FLAC (*.flac)
Тип рипа: image+.cue
Битрейт аудио: lossless
Продолжительность: 52:46
Источник (релизер): cd
Наличие сканов в содержимом раздачи: нет
Треклист:
1 Susurration 5:50
2 Capacious 6:28
3 Motivity 8:28
4 Philio 8:26
5 Plumaseria 9:28
6 Specular 5:38
7 Vista 8:26
 
Лог создания рипа
Exact Audio Copy V1.0 beta 2 from 29. April 2011
EAC extraction logfile from 23. December 2011, 14:19
Sam Rivers / Vista
Used drive : Optiarc DVD RW AD-7170A Adapter: 0 ID: 0
Read mode : Secure
Utilize accurate stream : Yes
Defeat audio cache : Yes
Make use of C2 pointers : No
Read offset correction : 48
Overread into Lead-In and Lead-Out : No
Fill up missing offset samples with silence : Yes
Delete leading and trailing silent blocks : No
Null samples used in CRC calculations : Yes
Used interface : Native Win32 interface for Win NT & 2000
Used output format : User Defined Encoder
Selected bitrate : 320 kBit/s
Quality : High
Add ID3 tag : No
Command line compressor : C:\Program Files\Exact Audio Copy\Flac\flac.exe
Additional command line options : -V -8 -T "Date=%year%" -T "Genre=%genre%" %source%
TOC of the extracted CD
Track | Start | Length | Start sector | End sector
---------------------------------------------------------
1 | 0:00.00 | 5:50.27 | 0 | 26276
2 | 5:50.27 | 6:28.50 | 26277 | 55426
3 | 12:19.02 | 8:28.35 | 55427 | 93561
4 | 20:47.37 | 8:26.03 | 93562 | 131514
5 | 29:13.40 | 9:28.40 | 131515 | 174154
6 | 38:42.05 | 5:38.20 | 174155 | 199524
7 | 44:20.25 | 8:26.38 | 199525 | 237512
Range status and errors
Selected range
Filename C:\EAC\Downloads\Sam Rivers - Vista.wav
Peak level 99.4 %
Extraction speed 5.0 X
Range quality 100.0 %
Test CRC B3359EB3
Copy CRC B3359EB3
Copy OK
No errors occurred
AccurateRip summary
Track 1 accurately ripped (confidence 4) [192110A1] (AR v1)
Track 2 accurately ripped (confidence 4) [C2854905] (AR v1)
Track 3 accurately ripped (confidence 4) [FCF4CD78] (AR v1)
Track 4 accurately ripped (confidence 4) [148E79DD] (AR v1)
Track 5 accurately ripped (confidence 4) [96E632FF] (AR v1)
Track 6 accurately ripped (confidence 4) [B809C72A] (AR v1)
Track 7 accurately ripped (confidence 4) [2AC035F2] (AR v1)
All tracks accurately ripped
End of status report
==== Log checksum 06CB6ECFE987D55F136052F8F0A0414551123675F0DA74A9DF77F1458091FA51 ====
 
Содержание индексной карты (.CUE)
REM GENRE Jazz
REM DATE 2004
REM DISCID 550C5E07
REM COMMENT "ExactAudioCopy v1.0b2"
PERFORMER "Sam Rivers"
TITLE "Vista"
FILE "Sam Rivers - Vista.flac" WAVE
TRACK 01 AUDIO
TITLE "Susurration"
PERFORMER "Sam Rivers"
ISRC USADR0311251
FLAGS DCP
INDEX 01 00:00:00
TRACK 02 AUDIO
TITLE "Capacious"
PERFORMER "Sam Rivers"
ISRC USARD0311252
FLAGS DCP
INDEX 00 05:44:48
INDEX 01 05:50:27
TRACK 03 AUDIO
TITLE "Motivity"
PERFORMER "Sam Rivers"
ISRC USADR0311253
FLAGS DCP
INDEX 00 12:13:22
INDEX 01 12:19:02
TRACK 04 AUDIO
TITLE "Philio"
PERFORMER "Sam Rivers"
ISRC USADR0311254
FLAGS DCP
INDEX 00 20:41:59
INDEX 01 20:47:37
TRACK 05 AUDIO
TITLE "Plumaseria"
PERFORMER "Sam Rivers"
ISRC USADR0311255
FLAGS DCP
INDEX 00 29:07:60
INDEX 01 29:13:40
TRACK 06 AUDIO
TITLE "Specular"
PERFORMER "Sam Rivers"
ISRC USADR0311256
FLAGS DCP
INDEX 00 38:36:27
INDEX 01 38:42:05
TRACK 07 AUDIO
TITLE "Vista"
PERFORMER "Sam Rivers"
ISRC USADR0311257
FLAGS DCP
INDEX 00 44:14:46
INDEX 01 44:20:25
Доп. информация: Recording Date: Sep 24, 2003
 
Об альбоме (сборнике)
Recorded in 2003 at the Clear Lake recording studio in Venice, California. This set places Sam Rivers in the company of drummer Harris Eisenstadt and percussionist Adam Rudolph for a series of seven medium-length freewheeling improvisations. Rivers plays tenor, soprano and flute on these exercises and the effect is electrifying. While completely in the moment, utterly outside, and spontaneously realized, there is a certain warmth and accessibility on this outing that is unexpected. The music flows, easily, effortlessly, and Rivers' own focus is remarkable in the onslaught of drums that seem to come from behind and in front of him, surrounding him on every side. The feeling is ever forward. Rivers doesn't strive to play above the drums but with them, through them, inside them, weaving a quilt of color and nuance while still projecting considerable force. This is not a date for everyone and it is a workout, but it's a sublime one that offers plenty to anyone willing to take it on its own terms.
 
Состав
Harris Eisenstadt Drums
Sam Rivers Flute, Sax (Soprano), Sax (Tenor)
Adam Rudolph Drums, Hand Drums
Any questions -> support@pro-jazz.com. По всем вопросам пишите -> support@pro-jazz.com
20:01
227
Нет комментариев. Ваш будет первым!