Вы используете незарегистрированную версию компонента "Вкладки"!

Поиск

(Free Improvisation, Free Jazz) Luc Houtkamp - Luc Houtkamp In Chicago - 1999, FLAC (tracks+.cue) lossless

Треклист:
Luc Houtkamp - Luc Houtkamp In Chicago
Жанр: Free Improvisation, Free Jazz
Страна-производитель диска: USA
Год издания диска: 1999
Издатель (лейбл): Entropy Stereo Recordings
Номер по каталогу: 007
Аудио кодек: FLAC (*.flac)
Тип рипа: tracks+.cue
Битрейт аудио: lossless
Продолжительность: 44:55
Источник (релизер): собственный рип с оригинального диска.
Наличие сканов в содержимом раздачи: да
Треклист:
01. Pershing Ballroom Jump
02. Jug (Without Dodo)
03. Flow Chart
04. New Wabash
05. Who is Claude McLin?
06. Richard Davis at DuSable
07. State Street Blues
 
Лог создания рипа
Exact Audio Copy V0.99 prebeta 5 from 4. May 2009
EAC extraction logfile from 27. March 2011, 13:31
Luc Houtkamp / Luc Houtkamp in Chicago
Used drive : TSSTcorpCDDVDW SH-S222A Adapter: 1 ID: 0
Read mode : Secure
Utilize accurate stream : Yes
Defeat audio cache : Yes
Make use of C2 pointers : No
Read offset correction : 6
Overread into Lead-In and Lead-Out : No
Fill up missing offset samples with silence : Yes
Delete leading and trailing silent blocks : No
Null samples used in CRC calculations : Yes
Used interface : Installed external ASPI interface
Gap handling : Appended to previous track
Used output format : User Defined Encoder
Selected bitrate : 768 kBit/s
Quality : High
Add ID3 tag : No
Command line compressor : C:\Tool\Compress\FLAC\flac.exe
Additional command line options : -8 -V -T "ARTIST=%a" -T "TITLE=%t" -T "ALBUM=%g" -T "DATE=%y" -T "TRACKNUMBER=%n" -T "TOTALTRACKS=%x" -T "GENRE=%m" -T "ALBUM ARTIST=%v" -T "COMMENT=EAC V0.99 prebeta 5, Secure Mode, Test & Copy, AccurateRip, FLAC -8" %s
TOC of the extracted CD
Track | Start | Length | Start sector | End sector
---------------------------------------------------------
1 | 0:00.00 | 10:55.11 | 0 | 49135
2 | 10:55.11 | 4:12.28 | 49136 | 68063
3 | 15:07.39 | 9:11.55 | 68064 | 109443
4 | 24:19.19 | 5:14.09 | 109444 | 133002
5 | 29:33.28 | 6:44.55 | 133003 | 163357
6 | 36:18.08 | 5:24.51 | 163358 | 187708
7 | 41:42.59 | 3:15.56 | 187709 | 202389
Track 1
Filename C:\! UPLOAD\Luc Houtkamp - In Chicago (1999) [FLAC] {Entropy Stereo}\01 - Pershing Ballroom Jump.wav
Pre-gap length 0:00:02.00
Peak level 99.4 %
Track quality 99.9 %
Test CRC 38891E6C
Copy CRC 38891E6C
Cannot be verified as accurate (confidence 1) [CBDF67BD], AccurateRip returned [4CC45824]
Copy OK
Track 2
Filename C:\! UPLOAD\Luc Houtkamp - In Chicago (1999) [FLAC] {Entropy Stereo}\02 - Jug (Without Dodo).wav
Peak level 89.3 %
Track quality 99.9 %
Test CRC 70C59618
Copy CRC 70C59618
Accurately ripped (confidence 1) [8C094645]
Copy OK
Track 3
Filename C:\! UPLOAD\Luc Houtkamp - In Chicago (1999) [FLAC] {Entropy Stereo}\03 - Flow Chart.wav
Peak level 90.0 %
Track quality 100.0 %
Test CRC B8F4732B
Copy CRC B8F4732B
Accurately ripped (confidence 1) [C6C34FB7]
Copy OK
Track 4
Filename C:\! UPLOAD\Luc Houtkamp - In Chicago (1999) [FLAC] {Entropy Stereo}\04 - New Wabash.wav
Peak level 91.1 %
Track quality 99.9 %
Test CRC 7C6195C9
Copy CRC 7C6195C9
Accurately ripped (confidence 1) [E4F7427F]
Copy OK
Track 5
Filename C:\! UPLOAD\Luc Houtkamp - In Chicago (1999) [FLAC] {Entropy Stereo}\05 - Who Is Claude McLin .wav
Peak level 90.5 %
Track quality 100.0 %
Test CRC CEE601D8
Copy CRC CEE601D8
Accurately ripped (confidence 1) [03FA7F49]
Copy OK
Track 6
Filename C:\! UPLOAD\Luc Houtkamp - In Chicago (1999) [FLAC] {Entropy Stereo}\06 - Richard Davis at DuSable.wav
Peak level 88.1 %
Track quality 100.0 %
Test CRC 81D16F5B
Copy CRC 81D16F5B
Accurately ripped (confidence 1) [93EFE0EF]
Copy OK
Track 7
Filename C:\! UPLOAD\Luc Houtkamp - In Chicago (1999) [FLAC] {Entropy Stereo}\07 - State Street Blues.wav
Peak level 88.7 %
Track quality 100.0 %
Test CRC 53E7EEFA
Copy CRC 53E7EEFA
Accurately ripped (confidence 1) [6A9EE090]
Copy OK
6 track(s) accurately ripped
1 track(s) could not be verified as accurate
Some tracks could not be verified as accurate
No errors occurred
End of status report
 
Содержание индексной карты (.CUE)
REM GENRE Jazz
REM DATE 1997
REM DISCID 5C0A8A07
REM COMMENT "ExactAudioCopy v0.99pb5"
PERFORMER "Luc Houtkamp"
TITLE "Luc Houtkamp in Chicago"
FILE "01 - Pershing Ballroom Jump.wav" WAVE
TRACK 01 AUDIO
TITLE "Pershing Ballroom Jump"
PERFORMER "Luc Houtkamp"
INDEX 01 00:00:00
FILE "02 - Jug (Without Dodo).wav" WAVE
TRACK 02 AUDIO
TITLE "Jug (Without Dodo)"
PERFORMER "Luc Houtkamp"
INDEX 01 00:00:00
FILE "03 - Flow Chart.wav" WAVE
TRACK 03 AUDIO
TITLE "Flow Chart"
PERFORMER "Luc Houtkamp"
INDEX 01 00:00:00
FILE "04 - New Wabash.wav" WAVE
TRACK 04 AUDIO
TITLE "New Wabash"
PERFORMER "Luc Houtkamp"
INDEX 01 00:00:00
FILE "05 - Who Is Claude McLin .wav" WAVE
TRACK 05 AUDIO
TITLE "Who Is Claude McLin?"
PERFORMER "Luc Houtkamp"
INDEX 01 00:00:00
FILE "06 - Richard Davis at DuSable.wav" WAVE
TRACK 06 AUDIO
TITLE "Richard Davis at DuSable"
PERFORMER "Luc Houtkamp"
INDEX 01 00:00:00
FILE "07 - State Street Blues.wav" WAVE
TRACK 07 AUDIO
TITLE "State Street Blues"
PERFORMER "Luc Houtkamp"
INDEX 01 00:00:00
Доп. информация:
Recorded at Airwave Studio, Chicago, IL, USA, April 17, 1997
 
Об альбоме (Review by Steve Loewy)
The much-heralded saxophonist Luc Houtkamp visited Chicago at the end of the 20th century and recorded seven tracks with two of the Windy City's best, bassist Kent Kessler and percussionist Michael Zerang. As expected, the energy flows, Houtkamp swings his ax violently and passionately but also at times with a slow flutter, and the bass and drums follow suit. The saxophonist is all over his horn, cramming multitudes of notes into small spaces, but making it all interesting with plenty of extended technique. Houtkamp remains a unique stylist, who relies on a distinct vocabulary of advanced method to create fascinating stories with sound. His complex solos often sound composed but are instead the product of an unusually fertile mind. His partners seem unusually subdued, but Houtkamp charges full steam ahead with or without the torpedoes.
 
Состав
Luc Houtkamp - tenor sax
Kent Kessler - double bass
Michael Zerang - drums
По всем вопросам пишите личное сообщение пользователю M0p94ok.
10:36
202
Нет комментариев. Ваш будет первым!