Вы используете незарегистрированную версию компонента "Вкладки"!

Поиск

(Free Improvisation / Free Jazz) Keith & Julie Tippett - Couple in Spirit - 1988, FLAC (tracks+.cue) lossless

(Free Improvisation / Free Jazz) Keith & Julie Tippett - Couple in Spirit - 1988, FLAC (tracks+.cue) lossless
Треклист:
Keith & Julie Tippett - Couple in Spirit
Жанр: Free Improvisation / Free Jazz
Год издания диска: 1988
Издатель (Label): EG Records Ltd. (EEGCD 52)
Аудио кодек: FLAC (*.flac)
Тип рипа: tracks+.cue
Битрейт аудио: lossless
Продолжительность: 37:05
Источник (релизер): belladona (thanks / спасибо)
Наличие сканов в содержимом раздачи: да
Треклист:
01 - Daybreak 03:13
02 - Morning Psalm 02:18
03 - Brimstone Spring Lullaby 03:47
04 - Evening Psalm 03:32
05 - Marching (We Shall Remember Them) 06:04
06 - The Choir and the Sunset Improvisers 07:24
07 - The Key at Dusk 06:25
08 - Grey Mist With Yellow Waterfall Entwines Evening Turquoise 04:25
Personnel:
* Keith Tippett - piano, voice, bottles, harpsichords, harmonium, bells
* Julie Tippetts - voice, bottles, shaker, zither, recorder
Доп. информация: Такой альбом вроде уже был на форуме, в Lossless... но тут "CD RIP", а там "LP RIP" ... вот он там:
http://rutracker.org/forum/viewtopic.php?t=1329715
 
Лог создания рипа (XLD Log)
X Lossless Decoder version 20080926 (93.3)
XLD extraction logfile from 2008-12-09 02:47:28 +0300
Keith And Julie Tippett / Couple In Spirit
Used drive : MATSHITA DVD-R UJ-85J (revision FCQA)
Use cdparanoia mode : YES (CDParanoia III 10.2 engine)
Disable audio cache : OK for the drive with cache less than 2750KB
Make use of C2 pointers : NO
Read offset correction : 102
Max retry count : 100
TOC of the extracted CD
Track | Start | Length | Start sector | End sector
---------------------------------------------------------
1 | 00:01:00 | 03:15:62 | 75 | 14761
2 | 03:16:62 | 02:21:74 | 14762 | 25410
3 | 05:38:61 | 03:51:19 | 25411 | 42754
4 | 09:30:05 | 03:37:25 | 42755 | 59054
5 | 13:07:30 | 06:06:34 | 59055 | 86538
6 | 19:13:64 | 07:28:73 | 86539 | 120211
7 | 26:42:62 | 06:25:16 | 120212 | 149102
8 | 33:08:03 | 04:26:10 | 149103 | 169062
All Tracks
Filename : /Users/mishki.net/Desktop/Couple In Spirit.flac
CRC32 hash : 46B41A0C
CRC32 hash (skip zero) : 6BF3B348
Statistics
Read error : 0
Skipped (treated as error) : 0
Edge jitter error (maybe fixed) : 0
Atom jitter error (maybe fixed) : 0
Drift error (maybe fixed) : 0
Dropped bytes error (maybe fixed) : 0
Duplicated bytes error (maybe fixed) : 0
Inconsistency in error sectors : 0
Track 01
CRC32 hash : D7ECE8E5
CRC32 hash (skip zero) : 090C2DEE
Statistics
Read error : 0
Skipped (treated as error) : 0
Edge jitter error (maybe fixed) : 0
Atom jitter error (maybe fixed) : 0
Drift error (maybe fixed) : 0
Dropped bytes error (maybe fixed) : 0
Duplicated bytes error (maybe fixed) : 0
Inconsistency in error sectors : 0
Track 02
CRC32 hash : 9F4ADFAD
CRC32 hash (skip zero) : 90FA3C3F
Statistics
Read error : 0
Skipped (treated as error) : 0
Edge jitter error (maybe fixed) : 0
Atom jitter error (maybe fixed) : 0
Drift error (maybe fixed) : 0
Dropped bytes error (maybe fixed) : 0
Duplicated bytes error (maybe fixed) : 0
Inconsistency in error sectors : 0
Track 03
CRC32 hash : D4077B4E
CRC32 hash (skip zero) : DFC3690F
Statistics
Read error : 0
Skipped (treated as error) : 0
Edge jitter error (maybe fixed) : 0
Atom jitter error (maybe fixed) : 0
Drift error (maybe fixed) : 0
Dropped bytes error (maybe fixed) : 0
Duplicated bytes error (maybe fixed) : 0
Inconsistency in error sectors : 0
Track 04
CRC32 hash : 3F8A1CCB
CRC32 hash (skip zero) : 376F3B68
Statistics
Read error : 0
Skipped (treated as error) : 0
Edge jitter error (maybe fixed) : 0
Atom jitter error (maybe fixed) : 0
Drift error (maybe fixed) : 0
Dropped bytes error (maybe fixed) : 0
Duplicated bytes error (maybe fixed) : 0
Inconsistency in error sectors : 0
Track 05
CRC32 hash : E852C1D6
CRC32 hash (skip zero) : B8BFF329
Statistics
Read error : 0
Skipped (treated as error) : 0
Edge jitter error (maybe fixed) : 0
Atom jitter error (maybe fixed) : 0
Drift error (maybe fixed) : 0
Dropped bytes error (maybe fixed) : 0
Duplicated bytes error (maybe fixed) : 0
Inconsistency in error sectors : 0
Track 06
CRC32 hash : 80DF715D
CRC32 hash (skip zero) : 104865E2
Statistics
Read error : 0
Skipped (treated as error) : 0
Edge jitter error (maybe fixed) : 0
Atom jitter error (maybe fixed) : 0
Drift error (maybe fixed) : 0
Dropped bytes error (maybe fixed) : 0
Duplicated bytes error (maybe fixed) : 0
Inconsistency in error sectors : 0
Track 07
CRC32 hash : 2C81D8B7
CRC32 hash (skip zero) : FB32C9C3
Statistics
Read error : 0
Skipped (treated as error) : 0
Edge jitter error (maybe fixed) : 0
Atom jitter error (maybe fixed) : 0
Drift error (maybe fixed) : 0
Dropped bytes error (maybe fixed) : 0
Duplicated bytes error (maybe fixed) : 0
Inconsistency in error sectors : 0
Track 08
CRC32 hash : 41342C9D
CRC32 hash (skip zero) : F3C7B15C
Statistics
Read error : 0
Skipped (treated as error) : 0
Edge jitter error (maybe fixed) : 0
Atom jitter error (maybe fixed) : 0
Drift error (maybe fixed) : 0
Dropped bytes error (maybe fixed) : 0
Duplicated bytes error (maybe fixed) : 0
Inconsistency in error sectors : 0
No errors occurred
End of status report
 
Содержание индексной карты (.CUE)
;
;--[ Created by Medieval CUE Splitter! ]--
;
;-----------[ www.medieval.it ]-----------
;
REM GENRE "Jazz"
TITLE "Couple In Spirit"
PERFORMER "Keith And Julie Tippett"
FILE "01 - Daybreak.flac" WAVE
TRACK 01 AUDIO
TITLE Daybreak
PERFORMER "Keith And Julie Tippett"
PREGAP 00:01:00
INDEX 01 00:00:00
FILE "02 - Morning Psalm.flac" WAVE
TRACK 02 AUDIO
TITLE "Morning Psalm"
PERFORMER "Keith And Julie Tippett"
PREGAP 00:04:00
INDEX 01 00:00:00
FILE "03 - Brimstone Spring Lullaby.flac" WAVE
TRACK 03 AUDIO
TITLE "Brimstone Spring Lullaby"
PERFORMER "Keith And Julie Tippett"
PREGAP 00:04:00
INDEX 01 00:00:00
FILE "04 - Evening Psalm.flac" WAVE
TRACK 04 AUDIO
TITLE "Evening Psalm"
PERFORMER "Keith And Julie Tippett"
PREGAP 00:04:00
INDEX 01 00:00:00
FILE "05 - Marching (We Shall Remember Them).flac" WAVE
TRACK 05 AUDIO
TITLE "Marching (We Shall Remember Them)"
PERFORMER "Keith And Julie Tippett"
PREGAP 00:04:00
INDEX 01 00:00:00
FILE "06 - The Choir And The Sunset Improvisers.flac" WAVE
TRACK 06 AUDIO
TITLE "The Choir And The Sunset Improvisers"
PERFORMER "Keith And Julie Tippett"
PREGAP 00:04:00
INDEX 01 00:00:00
FILE "07 - The Key At Dust.flac" WAVE
TRACK 07 AUDIO
TITLE "The Key At Dust"
PERFORMER "Keith And Julie Tippett"
PREGAP 00:04:00
INDEX 01 00:00:00
FILE "08 - Grey Mist With Yellow Waterfall Entwines Evening Turquoise.flac" WAVE
TRACK 08 AUDIO
TITLE "Grey Mist With Yellow Waterfall Entwines Evening Turquoise"
PERFORMER "Keith And Julie Tippett"
PREGAP 00:04:00
INDEX 01 00:00:00
 
Об исполнителе / об альбоме (About)
The pairing of Keith and Julie Tippett on a recording always causes anticipation; the duo's potential for provocative surprise is seemingly endless. But even so, nothing could have prepared listeners for Couple in Spirit. Far from the hallmarks of jazz or the harsher extremes of free improvisation, CIS is in a sense an eight-part suite that begins with intention, moves through incantation and journey, and finally returns as transformation. The Tippetts use the passage of a single day as a metaphor. They begin with the softly chanted "Daybreak," accompanied by bottles, shakers, and the plucked and strummed insides of the piano. The slip and slip of Julie's voice as it hovers and floats and Keith's as it shores up the lower end as counterpoint are lovely together as interplay. They hold forth that everything is possible at the start of the day, and indeed possibilities breed occurrence. They move through a pair of tracks -- "Morning Psalm" and "Brimstone Spring Lullaby" -- where Julie's voice explores the sonic inventions of Keith's inside the piano playing, or as on the latter track, the incantory resonance of her own voice courtesy of Robert Fripp's multi-tracking. After "Evening Psalm," the record begins to turn and the invention of language becomes paramount to the pair's internal communication in both mood and feeling. By the time listeners reach "The Choir and the Sunset Improvisers," where Keith's piano is dancing full through the high alto reaches of Julie's wordless singing, they are in some kind of dance with this music -- alive and blind and open to whatever it offers. By the recordings end, listeners have traveled the deep spiritual and naturalist passageways of a different kind of improvisation. Like all music it relies on dynamic, notions of rhythm, and perhaps in places even harmony, but it goes further and establishes a place for all of those things to bleed into one another. It creates a space for the nuance of musical language, of improvisational sonic poetry where outcome rests exclusively on what gets discovered in the process and is offered nakedly and humbly back to the listener that way. This is a remarkable recording. Couple in Spirit is among the duo's best recordings. It ends with the shimmering ambiguity of "Grey Mist With Yellow Waterfall Entwines Evening Turquoise" in a marriage of bells, piano, harpsichord, bottles, a recorder and shakers with Julie's vocals. The effect is of a rite being concluded, the shaman's journeying concluded, and an offering made to the spirits for safe travel and wondrous revelations. Who knows what the Tippetts intended here, but it doesn't matter. This is music that has to be felt through as well as listened to; its subtleties offer themselves only after repeated listening when they become powerful spiritual incentives to delve more deeply into the text and journey along. Magnificent. (~Thom Jurek, All Music Guide)
По всем вопросам пишите личное сообщение пользователю M0p94ok.
03:38
156
Нет комментариев. Ваш будет первым!