Вы используете незарегистрированную версию компонента "Вкладки"!

Поиск

(Free Improvisation, Free Jazz) Keiki Midorikawa (Masahiko Togashi, Masayuki Takayanagi, Masahiko Sato) - Complete Grune Revolution (2cd) - 2009 (1976), FLAC (tracks+.cue), lossless

(Free Improvisation, Free Jazz) Keiki Midorikawa (Masahiko Togashi, Masayuki Takayanagi, Masahiko Sato) - Complete Grune Revolution (2cd) - 2009 (1976), FLAC (tracks+.cue), lossless
Треклист:
Keiki Midorikawa - Complete Grüne Revolution
Жанр: Free Improvisation, Free Jazz
Год выпуска диска: 2009 (1976)
Производитель диска: doubtmusic (dmhrp-129 / 130)
Источник: вот.сиди (dashdash1)
Аудио кодек: FLAC
Тип рипа: tracks+.cue
Битрейт аудио: lossless
Продолжительность: 1:20:57
Треклист:
disc 1
1. Midorikawa - Togashi duo (previously unreleased) / Dichorragia nesimachus (41:00)
スミナガシ
disc 2
1. Midorikawa - Takayanagi duo / An die Prinzessin die aus dem Maulbeerbaum geboren wurde (19:15)
くわの木より生まれ出づる姫に
2. Midorikawa - Sato duo / Der Todeskampf am Maderospatch (20:25)
マタロパッチの戦い
recorded on January 16, 1976 at Nichi-futsu kaikan, Tokyo
Keiki Midorikawa cello, bass
Masahiko Togashi percussion, drums
Masayuki Takayanagi guitar
Masahiko Sato piano
 
Лог создания рипа
Exact Audio Copy V1.0 beta 2 from 29. April 2011
EAC extraction logfile from 13. October 2011, 16:57
Keiki Midorikawa / Complete "Grüne Revolution"
Used drive : TSSTcorpCDDVDW TS-L633C Adapter: 0 ID: 1
Read mode : Secure
Utilize accurate stream : Yes
Defeat audio cache : Yes
Make use of C2 pointers : No
Read offset correction : 6
Overread into Lead-In and Lead-Out : No
Fill up missing offset samples with silence : Yes
Delete leading and trailing silent blocks : No
Null samples used in CRC calculations : Yes
Used interface : Native Win32 interface for Win NT & 2000
Gap handling : Appended to previous track
Used output format : User Defined Encoder
Selected bitrate : 128 kBit/s
Quality : High
Add ID3 tag : No
Command line compressor : C:\Program Files (x86)\Exact Audio Copy\Flac\flac.exe
Additional command line options : -8 -V -T "ARTIST=%artist%" -T "TITLE=%title%" -T "ALBUM=%albumtitle%" -T "DATE=%year%" -T "TRACKNUMBER=%tracknr%" -T "GENRE=%genre%" -T "PERFORMER=%albuminterpret%" -T "COMPOSER=%composer%" %haslyrics%--tag-from-file=LYRICS
TOC of the extracted CD
Track | Start | Length | Start sector | End sector
---------------------------------------------------------
1 | 0:00.00 | 39:54.51 | 0 | 179600
Track 1
Filename C:\EAC rips\01 - Keiki Midorikawa + Masahiko Togashi - Dichorragia nesimachus.wav
Pre-gap length 0:00:02.00
Peak level 94.3 %
Extraction speed 1.6 X
Track quality 100.0 %
Test CRC EAC00A56
Copy CRC EAC00A56
Track not present in AccurateRip database
Copy OK
None of the tracks are present in the AccurateRip database
No errors occurred
End of status report
==== Log checksum EDE6FC766F7FDB43E38ABEF40192B9259FF829C21C5F8B3F979932A87B9DD7DF ====


Exact Audio Copy V1.0 beta 2 from 29. April 2011
EAC extraction logfile from 13. October 2011, 18:02
Keiki Midorikawa / Complete "Grüne Revolution"
Used drive : TSSTcorpCDDVDW TS-L633C Adapter: 0 ID: 1
Read mode : Secure
Utilize accurate stream : Yes
Defeat audio cache : Yes
Make use of C2 pointers : No
Read offset correction : 6
Overread into Lead-In and Lead-Out : No
Fill up missing offset samples with silence : Yes
Delete leading and trailing silent blocks : No
Null samples used in CRC calculations : Yes
Used interface : Native Win32 interface for Win NT & 2000
Gap handling : Appended to previous track
Used output format : User Defined Encoder
Selected bitrate : 128 kBit/s
Quality : High
Add ID3 tag : No
Command line compressor : C:\Program Files (x86)\Exact Audio Copy\Flac\flac.exe
Additional command line options : -8 -V -T "ARTIST=%artist%" -T "TITLE=%title%" -T "ALBUM=%albumtitle%" -T "DATE=%year%" -T "TRACKNUMBER=%tracknr%" -T "GENRE=%genre%" -T "PERFORMER=%albuminterpret%" -T "COMPOSER=%composer%" %haslyrics%--tag-from-file=LYRICS
TOC of the extracted CD
Track | Start | Length | Start sector | End sector
---------------------------------------------------------
1 | 0:00.00 | 20:02.71 | 0 | 90220
2 | 20:02.71 | 20:59.16 | 90221 | 184661
Track 1
Filename C:\EAC rips\01 - Keiki Midorikawa + Masayuki Takayanagi - An die Prinzessin die aus dem Maulbeerbaum geboren wurde.wav
Pre-gap length 0:00:02.00
Peak level 94.3 %
Extraction speed 1.5 X
Track quality 100.0 %
Test CRC EA88272A
Copy CRC EA88272A
Track not present in AccurateRip database
Copy OK
Track 2
Filename C:\EAC rips\02 - Keiki Midorikawa + Masahiko Satoh - Der Todeskampf Am Maderospatch.wav
Pre-gap length 0:00:03.00
Peak level 94.3 %
Extraction speed 2.0 X
Track quality 99.9 %
Test CRC 6EE2BC26
Copy CRC 6EE2BC26
Track not present in AccurateRip database
Copy OK
None of the tracks are present in the AccurateRip database
No errors occurred
End of status report
==== Log checksum 239DCAF31067DD60F6783EBD37CC8FA51510FDD79F04E288FDF6C65CDAECC5A5 ====
 
Содержание индексной карты (.CUE)
REM GENRE "Free Improvisation"
REM DATE 2009
REM DISCID 02095A01
REM COMMENT "ExactAudioCopy v1.0b2"
FILE "01 - Keiki Midorikawa + Masahiko Togashi - Dichorragia nesimachus.wav" WAVE
TRACK 01 AUDIO
INDEX 01 00:00:00


второго нет
 
Лог проверки качества
AUDIOCHECKER v2.0 beta (build 457) - by Dester - opdester@freemail.hu
~~~~~~~~~~~~~~~~~~~~~~~~~~~~~~~~~~
-=== DO NOT EDIT THIS FILE! ===-
Path: ...\Disc 1
1 -=- 01 - Keiki Midorikawa + Masahiko Togashi - Dichorragia nesimachus.flac -=- CDDA (100%)
202806308


AUDIOCHECKER v2.0 beta (build 457) - by Dester - opdester@freemail.hu
~~~~~~~~~~~~~~~~~~~~~~~~~~~~~~~~~~
-=== DO NOT EDIT THIS FILE! ===-
Path: ...\Disc 2
1 -=- 01 - Keiki Midorikawa + Masayuki Takayanagi - An die Prinzessin die aus dem Maulbeerbaum geboren wurde.flac -=- CDDA (100%)
2 -=- 02 - Keiki Midorikawa + Masahiko Satoh - Der Todeskampf Am Maderospatch.flac -=- CDDA (100%)
Summary 100,00% CDDA
159467764
По всем вопросам пишите личное сообщение пользователю M0p94ok.
22:28
204
Нет комментариев. Ваш будет первым!