Вы используете незарегистрированную версию компонента "Вкладки"!

Поиск

(Free Improvisation, Free Jazz) Frank Gratkowski & Hamid Drake - Frank Gratkowski & Hamid Drake - 2010, FLAC (tracks+.cue), lossless

(Free Improvisation, Free Jazz) Frank Gratkowski & Hamid Drake - Frank Gratkowski & Hamid Drake - 2010, FLAC (tracks+.cue), lossless
Треклист:
Frank Gratkowski & Hamid Drake / Frank Gratkowski & Hamid Drake
Жанр: Free Improvisation, Free Jazz
Год издания: 2010
Издатель (лейбл): Valid Records
Номер по каталогу: VR-1014
Страна: Germany/ USA
Аудиокодек: FLAC (*.flac)
Тип рипа: tracks+.cue
Битрейт аудио: lossless
Продолжительность: 01:02:06
Источник (релизер): persecond3
Наличие сканов в содержимом раздачи: нет
Треклист:
1. Brother G's Walk 20:05
2. Square Root of Distraction 13:46
3. Well, It's Complicated 12:10
4. Varm Somehow 16:02
 
Лог создания рипа
Exact Audio Copy V1.0 beta 3 from 29. August 2011
EAC extraction logfile from 5. May 2013, 14:57
Frank Gratkowski & Hamid Drake / Frank Gratkowski & Hamid Drake
Used drive : HL-DT-STDVDRAM GT51N Adapter: 0 ID: 1
Read mode : Secure
Utilize accurate stream : Yes
Defeat audio cache : Yes
Make use of C2 pointers : No
Read offset correction : 103
Overread into Lead-In and Lead-Out : No
Fill up missing offset samples with silence : Yes
Delete leading and trailing silent blocks : No
Null samples used in CRC calculations : Yes
Used interface : Native Win32 interface for Win NT & 2000
Gap handling : Appended to previous track
Used output format : User Defined Encoder
Selected bitrate : 128 kBit/s
Quality : High
Add ID3 tag : No
Command line compressor : C:\Program Files (x86)\Exact Audio Copy\Flac\flac.exe
Additional command line options : -8 -V -T "ARTIST=%artist%" -T "TITLE=%title%" -T "ALBUM=%albumtitle%" -T "DATE=%year%" -T "TRACKNUMBER=%tracknr%" -T "GENRE=%genre%" -T "PERFORMER=%albuminterpret%" -T "COMPOSER=%composer%" %haslyrics%--tag-from-file=LYRICS="%lyricsfile%"%haslyrics% -T "ALBUMARTIST=%albumartist%" -T "DISCNUMBER=%cdnumber%" -T "TOTALDISCS=%totalcds%" -T "TOTALTRACKS=%numtracks%" -T "COMMENT=%comment%" %source% -o %dest%
TOC of the extracted CD
Track | Start | Length | Start sector | End sector
---------------------------------------------------------
1 | 0:00.00 | 20:05.46 | 0 | 90420
2 | 20:05.46 | 13:46.41 | 90421 | 152411
3 | 33:52.12 | 12:10.21 | 152412 | 207182
4 | 46:02.33 | 16:02.27 | 207183 | 279359
Track 1
Filename F:\_Music\Frank Gratkowski & Hamid Drake\2010 - Frank Gratkowski & Hamid Drake\01 Brother G's Walk.wav
Pre-gap length 0:00:02.00
Peak level 97.7 %
Extraction speed 2.7 X
Track quality 100.0 %
Test CRC 9F0064F9
Copy CRC 9F0064F9
Track not present in AccurateRip database
Copy OK
Track 2
Filename F:\_Music\Frank Gratkowski & Hamid Drake\2010 - Frank Gratkowski & Hamid Drake\02 Square Root of Distraction.wav
Pre-gap length 0:00:03.04
Peak level 97.7 %
Extraction speed 3.4 X
Track quality 100.0 %
Test CRC 17B5AFB0
Copy CRC 17B5AFB0
Track not present in AccurateRip database
Copy OK
Track 3
Filename F:\_Music\Frank Gratkowski & Hamid Drake\2010 - Frank Gratkowski & Hamid Drake\03 Well, It's Complicated.wav
Pre-gap length 0:00:03.20
Peak level 97.7 %
Extraction speed 3.8 X
Track quality 100.0 %
Test CRC 1EAFB3D6
Copy CRC 1EAFB3D6
Track not present in AccurateRip database
Copy OK
Track 4
Filename F:\_Music\Frank Gratkowski & Hamid Drake\2010 - Frank Gratkowski & Hamid Drake\04 Warm Somehow.wav
Pre-gap length 0:00:02.73
Peak level 97.7 %
Extraction speed 3.5 X
Track quality 100.0 %
Test CRC 044C1792
Copy CRC 044C1792
Track not present in AccurateRip database
Copy OK
None of the tracks are present in the AccurateRip database
No errors occurred
End of status report
---- CUETools DB Plugin V2.1.3
[CTDB TOCID: y218lD0Ha_3p3yMJ.hmWghtqKXk-] found, Submit result: y218lD0Ha_3p3yMJ.hmWghtqKXk- has been confirmed
[105bd5b7] (1/1) Accurately ripped
==== Log checksum 17A4BA93FEC7C2DAD83813AD759C3821E14B7899EE56784C4D478D81054DB3DC ====
 
Содержание индексной карты (.CUE)
REM GENRE Jazz
REM DATE 2010
REM DISCID 280E8C04
REM COMMENT "ExactAudioCopy v1.0b3"
PERFORMER "Frank Gratkowski & Hamid Drake"
TITLE "Frank Gratkowski & Hamid Drake"
FILE "01 Brother G's Walk.wav" WAVE
TRACK 01 AUDIO
TITLE "Brother G's Walk"
PERFORMER "Frank Gratkowski & Hamid Drake"
INDEX 01 00:00:00
TRACK 02 AUDIO
TITLE "Square Root of Distraction"
PERFORMER "Frank Gratkowski & Hamid Drake"
INDEX 00 20:02:42
FILE "02 Square Root of Distraction.wav" WAVE
INDEX 01 00:00:00
TRACK 03 AUDIO
TITLE "Well, It's Complicated"
PERFORMER "Frank Gratkowski & Hamid Drake"
INDEX 00 13:43:21
FILE "03 Well, It's Complicated.wav" WAVE
INDEX 01 00:00:00
TRACK 04 AUDIO
TITLE "Warm Somehow"
PERFORMER "Frank Gratkowski & Hamid Drake"
INDEX 00 12:07:23
FILE "04 Warm Somehow.wav" WAVE
INDEX 01 00:00:00
 
Об альбоме (сборнике)
This live in the studio concert captures these two international legends of the international free jazz/free improv. scene at their expansive and freest best. cdbaby.com
freejazzblog.org
Any questions -> support@pro-jazz.com. По всем вопросам пишите -> support@pro-jazz.com
13:36
191
Нет комментариев. Ваш будет первым!