Вы используете незарегистрированную версию компонента "Вкладки"!

Поиск

(Free Improvisation, Free Jazz) Francois Corneloup trio - Jardins Ouvriers - 2002, FLAC (image+.cue), lossless

Треклист:
Francois Corneloup trio / Jardins Ouvriers
Жанр: Free Improvisation, Free Jazz
Страна-производитель диска: France
Год издания: 2002
Издатель (лейбл): Fremeaux & associes
Номер по каталогу: FA454
Аудиокодек: FLAC (*.flac)
Тип рипа: image+.cue
Битрейт аудио: lossless
Продолжительность: 52:17
Источник (релизер): cd
Наличие сканов в содержимом раздачи: нет
Треклист:
1. Jiri 4:01
2. Treves 7:51
3. Intouchables 3:05
4. Jardins ouvriers 8:27
5. Minerale 5:37
6. Pas de sentiments 9:59
7. Rhombe 5:48
8. Les forains 3:09
9. D'un maniement tres simple 4:15
 
Лог создания рипа
Exact Audio Copy V1.0 beta 2 from 29. April 2011
EAC extraction logfile from 28. May 2012, 11:20
François Corneloup Trio / Jardins Ouvriers
Used drive : Optiarc DVD RW AD-7170A Adapter: 0 ID: 0
Read mode : Secure
Utilize accurate stream : Yes
Defeat audio cache : Yes
Make use of C2 pointers : No
Read offset correction : 48
Overread into Lead-In and Lead-Out : No
Fill up missing offset samples with silence : Yes
Delete leading and trailing silent blocks : No
Null samples used in CRC calculations : Yes
Used interface : Native Win32 interface for Win NT & 2000
Used output format : User Defined Encoder
Selected bitrate : 320 kBit/s
Quality : High
Add ID3 tag : No
Command line compressor : C:\Program Files\Exact Audio Copy\Flac\flac.exe
Additional command line options : -V -8 -T "Date=%year%" -T "Genre=%genre%" %source%
TOC of the extracted CD
Track | Start | Length | Start sector | End sector
---------------------------------------------------------
1 | 0:00.00 | 4:01.67 | 0 | 18141
2 | 4:01.67 | 7:51.60 | 18142 | 53526
3 | 11:53.52 | 3:05.48 | 53527 | 67449
4 | 14:59.25 | 8:27.52 | 67450 | 105526
5 | 23:27.02 | 5:37.55 | 105527 | 130856
6 | 29:04.57 | 9:59.70 | 130857 | 175851
7 | 39:04.52 | 5:48.13 | 175852 | 201964
8 | 44:52.65 | 3:09.05 | 201965 | 216144
9 | 48:01.70 | 4:15.17 | 216145 | 235286
Range status and errors
Selected range
Filename K:\ЕАС\François Corneloup Trio - Jardins Ouvriers.wav
Peak level 99.9 %
Extraction speed 1.9 X
Range quality 100.0 %
Test CRC F1A5058B
Copy CRC F1A5058B
Copy OK
No errors occurred
AccurateRip summary
Track 1 accurately ripped (confidence 3) [1F5C8877] (AR v1)
Track 2 accurately ripped (confidence 3) [0B31F1D6] (AR v1)
Track 3 accurately ripped (confidence 3) [8CA59132] (AR v1)
Track 4 accurately ripped (confidence 3) [D4D2248D] (AR v1)
Track 5 accurately ripped (confidence 3) [8CD65820] (AR v1)
Track 6 accurately ripped (confidence 3) [FF0D0BA7] (AR v1)
Track 7 accurately ripped (confidence 3) [3AB78150] (AR v1)
Track 8 accurately ripped (confidence 3) [144C8268] (AR v1)
Track 9 accurately ripped (confidence 3) [E1827B8E] (AR v1)
All tracks accurately ripped
End of status report
==== Log checksum 154336930B2B9C2DEB8D7BFAB2324F8A9DEE91512571082D277D4F082322F91C ====
 
Содержание индексной карты (.CUE)
REM GENRE Jazz
REM DATE 1998
REM DISCID 7B0C4109
REM COMMENT "ExactAudioCopy v1.0b2"
CATALOG 3422570108240
PERFORMER "Francois Corneloup Trio"
TITLE "Jardins Ouvriers"
FILE "Francois Corneloup Trio - Jardins Ouvriers.flac" WAVE
TRACK 01 AUDIO
TITLE "Jiri"
PERFORMER "Francois Corneloup Trio"
ISRC 000000000000
INDEX 01 00:00:00
TRACK 02 AUDIO
TITLE "Treves"
PERFORMER "Francois Corneloup Trio"
ISRC 000000000000
INDEX 01 04:01:67
TRACK 03 AUDIO
TITLE "Intouchables"
PERFORMER "Francois Corneloup Trio"
ISRC 000000000000
INDEX 01 11:53:52
TRACK 04 AUDIO
TITLE "Jardins Ouvriers"
PERFORMER "Francois Corneloup Trio"
ISRC 000000000000
INDEX 01 14:59:25
TRACK 05 AUDIO
TITLE "Minerale"
PERFORMER "Francois Corneloup Trio"
ISRC 000000000000
INDEX 00 23:20:02
INDEX 01 23:27:02
TRACK 06 AUDIO
TITLE "Pas de Sentiments"
PERFORMER "Francois Corneloup Trio"
ISRC 000000000000
INDEX 01 29:04:57
TRACK 07 AUDIO
TITLE "Rhombe"
PERFORMER "Francois Corneloup Trio"
ISRC 000000000000
INDEX 01 39:04:52
TRACK 08 AUDIO
TITLE "Les Forains"
PERFORMER "Francois Corneloup Trio"
ISRC 000000000000
INDEX 00 44:49:42
INDEX 01 44:52:65
TRACK 09 AUDIO
TITLE "D'un Maniement tres Simple"
PERFORMER "Francois Corneloup Trio"
ISRC 000000000000
INDEX 01 48:01:70
Доп. информация: Enregistre et mixe les 15, 16, 17 Novembre 1997 aux studios la Buissonne.
 
Состав
Francois Corneloup : saxophones soprano & baryton
Claude Tchamitchian : contrebasse
Eric Echampard : batterie.
Any questions -> support@pro-jazz.com. По всем вопросам пишите -> support@pro-jazz.com
01:07
123
Нет комментариев. Ваш будет первым!