Поиск

(Free Improvisation, Free Jazz) [CD] The Rempis Percussion Quartet (Ingebrigt Haker Flaten, Frank Rosaly, Tim Daisy) - Phalanx - 2013 (2cd), FLAC (tracks+.cue), lossless

(Free Improvisation, Free Jazz) [CD] The Rempis Percussion Quartet (Ingebrigt Haker Flaten, Frank Rosaly, Tim Daisy) - Phalanx - 2013 (2cd), FLAC (tracks+.cue), lossless
The Rempis Percussion Quartet / Phalanx
Жанр: Free Improvisation, Free Jazz
Носитель: CD
Год издания: 2013
Издатель (лейбл): Aerophonic Records
Номер по каталогу: 001
Аудиокодек: FLAC (*.flac)
Тип рипа: tracks+.cue
Битрейт аудио: lossless
Продолжительность: 52:31+74:56
Источник (релизер): whatcd (6060842)
Наличие сканов в содержимом раздачи: нет
Треклист:
Disk 1: Live In Milwaukee
1 Algonquins 26:09
2 Cream City Stomp 26:27
Disk 2: Live In Antwerp
1 Anti-Goons 48:04
2 Croatalus Adamantooths 26:55
 
Лог создания рипа
X Lossless Decoder version 20130720 (144.0)
XLD extraction logfile from 2013-08-15 12:17:13 +0400
The Rempis Percussion Quartet / Phalanx
Used drive : HL-DT-ST DVDRW GX30N (revision RP09)
Media type : Pressed CD
Ripper mode : XLD Secure Ripper
Disable audio cache : OK for the drive with a cache less than 1375KiB
Make use of C2 pointers : NO
Read offset correction : 6
Max retry count : 100
Gap status : Analyzed, Appended (except HTOA)
TOC of the extracted CD
Track | Start | Length | Start sector | End sector
---------------------------------------------------------
1 | 00:00:00 | 26:08:60 | 0 | 117659
2 | 26:08:60 | 26:22:59 | 117660 | 236368
AccurateRip Summary (DiscID: 000566ed-000e692c-0f0c4f02)
Track 01 : OK (v2, confidence 1/1)
Track 02 : OK (v2, confidence 1/1)
->All tracks accurately ripped.
All Tracks
Album gain : -6.49 dB
Peak : 1.000000
Statistics
Read error : 0
Jitter error (maybe fixed) : 0
Retry sector count : 0
Damaged sector count : 0
Track 01
Filename : /Users/anch/Music/FLAC/The Rempis Percussion Quartet - 2012 - Phalanx [MP3 320]/01/01 - Algonquins.mp3
/Users/anch/Music/FLAC/The Rempis Percussion Quartet - 2012 - Phalanx [MP3 V0]/01/01 - Algonquins.mp3
/Users/anch/Music/FLAC/The Rempis Percussion Quartet - 2012 - Phalanx [FLAC]/01/01 - Algonquins.flac
Pre-gap length : 00:02:00
Track gain : -6.74 dB
Peak : 1.000000
CRC32 hash (test run) : D351E069
CRC32 hash : D351E069
CRC32 hash (skip zero) : A7CBF3AF
AccurateRip v1 signature : F5DB0AE1
AccurateRip v2 signature : 5156C229
->Accurately ripped (v2, confidence 1/1)
Statistics
Read error : 0
Jitter error (maybe fixed) : 0
Retry sector count : 0
Damaged sector count : 0
Track 02
Filename : /Users/anch/Music/FLAC/The Rempis Percussion Quartet - 2012 - Phalanx [MP3 320]/01/02 - Cream City Stomp.mp3
/Users/anch/Music/FLAC/The Rempis Percussion Quartet - 2012 - Phalanx [MP3 V0]/01/02 - Cream City Stomp.mp3
/Users/anch/Music/FLAC/The Rempis Percussion Quartet - 2012 - Phalanx [FLAC]/01/02 - Cream City Stomp.flac
Pre-gap length : 00:04:00
Track gain : -6.23 dB
Peak : 1.000000
CRC32 hash (test run) : E2045D14
CRC32 hash : E2045D14
CRC32 hash (skip zero) : BD8276FB
AccurateRip v1 signature : F02EC32F
AccurateRip v2 signature : 1E290042
->Accurately ripped (v2, confidence 1/1)
Statistics
Read error : 0
Jitter error (maybe fixed) : 0
Retry sector count : 0
Damaged sector count : 0
No errors occurred
End of status report
__________________________________________________________________________________________________________________________________________________________________
X Lossless Decoder version 20130720 (144.0)
XLD extraction logfile from 2013-08-15 12:42:45 +0400
The Rempis Percussion Quartet / Phalanx
Used drive : HL-DT-ST DVDRW GX30N (revision RP09)
Media type : Pressed CD
Ripper mode : XLD Secure Ripper
Disable audio cache : OK for the drive with a cache less than 1375KiB
Make use of C2 pointers : NO
Read offset correction : 6
Max retry count : 100
Gap status : Analyzed, Appended (except HTOA)
TOC of the extracted CD
Track | Start | Length | Start sector | End sector
---------------------------------------------------------
1 | 00:00:00 | 48:04:09 | 0 | 216308
2 | 48:04:09 | 26:54:64 | 216309 | 337422
AccurateRip Summary (DiscID: 00087304-00160c18-1a119202)
Track 01 : OK (v2, confidence 1/1)
Track 02 : OK (v2, confidence 1/1)
->All tracks accurately ripped.
All Tracks
Album gain : -7.58 dB
Peak : 1.000000
Statistics
Read error : 0
Jitter error (maybe fixed) : 0
Retry sector count : 0
Damaged sector count : 0
Track 01
Filename : /Users/anch/Music/FLAC/The Rempis Percussion Quartet - 2012 - Phalanx [MP3 320]/02/01 - Anti-Goons.mp3
/Users/anch/Music/FLAC/The Rempis Percussion Quartet - 2012 - Phalanx [MP3 V0]/02/01 - Anti-Goons.mp3
/Users/anch/Music/FLAC/The Rempis Percussion Quartet - 2012 - Phalanx [FLAC]/02/01 - Anti-Goons.flac
Pre-gap length : 00:02:00
Track gain : -7.76 dB
Peak : 1.000000
CRC32 hash (test run) : D9355E3E
CRC32 hash : D9355E3E
CRC32 hash (skip zero) : 680FFAA9
AccurateRip v1 signature : 1666822D
AccurateRip v2 signature : 47F6A653
->Accurately ripped (v2, confidence 1/1)
Statistics
Read error : 0
Jitter error (maybe fixed) : 0
Retry sector count : 0
Damaged sector count : 0
Track 02
Filename : /Users/anch/Music/FLAC/The Rempis Percussion Quartet - 2012 - Phalanx [MP3 320]/02/02 - Croatalus Adamantooths.mp3
/Users/anch/Music/FLAC/The Rempis Percussion Quartet - 2012 - Phalanx [MP3 V0]/02/02 - Croatalus Adamantooths.mp3
/Users/anch/Music/FLAC/The Rempis Percussion Quartet - 2012 - Phalanx [FLAC]/02/02 - Croatalus Adamantooths.flac
Pre-gap length : 00:04:00
Track gain : -6.97 dB
Peak : 1.000000
CRC32 hash (test run) : 765E21D5
CRC32 hash : 765E21D5
CRC32 hash (skip zero) : 84C5CA5B
AccurateRip v1 signature : 147A209E
AccurateRip v2 signature : 2BBF550E
->Accurately ripped (v2, confidence 1/1)
Statistics
Read error : 0
Jitter error (maybe fixed) : 0
Retry sector count : 0
Damaged sector count : 0
No errors occurred
End of status report
 
Содержание индексной карты (.CUE)
TITLE "Phalanx"
PERFORMER "The Rempis Percussion Quartet"
REM GENRE "Free Jazz"
REM DATE "2012"
REM DISCNUMBER 1
REM TOTALDISCS 2
REM DISCID 0F0C4F02
REM REPLAYGAIN_ALBUM_GAIN -6.49 dB
REM REPLAYGAIN_ALBUM_PEAK 1.000000
FILE "01 - Algonquins.flac" WAVE
TRACK 01 AUDIO
TITLE "Algonquins"
PERFORMER "The Rempis Percussion Quartet"
REM REPLAYGAIN_TRACK_GAIN -6.74 dB
REM REPLAYGAIN_TRACK_PEAK 1.000000
INDEX 01 00:00:00
TRACK 02 AUDIO
TITLE "Cream City Stomp"
PERFORMER "The Rempis Percussion Quartet"
REM REPLAYGAIN_TRACK_GAIN -6.23 dB
REM REPLAYGAIN_TRACK_PEAK 1.000000
INDEX 00 26:04:60
FILE "02 - Cream City Stomp.flac" WAVE
INDEX 01 00:00:00
__________________________________________________________________________________________________________________________________________________________________________
TITLE "Phalanx"
PERFORMER "The Rempis Percussion Quartet"
REM GENRE "Free Jazz"
REM DATE "2012"
REM DISCNUMBER 2
REM TOTALDISCS 2
REM DISCID 1A119202
REM REPLAYGAIN_ALBUM_GAIN -7.58 dB
REM REPLAYGAIN_ALBUM_PEAK 1.000000
FILE "01 - Anti-Goons.flac" WAVE
TRACK 01 AUDIO
TITLE "Anti-Goons"
PERFORMER "The Rempis Percussion Quartet"
REM REPLAYGAIN_TRACK_GAIN -7.76 dB
REM REPLAYGAIN_TRACK_PEAK 1.000000
INDEX 01 00:00:00
TRACK 02 AUDIO
TITLE "Croatalus Adamantooths"
PERFORMER "The Rempis Percussion Quartet"
REM REPLAYGAIN_TRACK_GAIN -6.97 dB
REM REPLAYGAIN_TRACK_PEAK 1.000000
INDEX 00 48:00:09
FILE "02 - Croatalus Adamantooths.flac" WAVE
INDEX 01 00:00:00
Доп. информация: Disc 1: recorded June 12th, 2012 @ The Sugar Maple during Okkafest 3.
Disc 2: recorded April 25th 2012 @ coStA.
 
Состав
Alto Saxophone, Tenor Saxophone, Baritone Saxophone – Dave Rempis
Bass – Ingebrigt Håker Flaten
Drums – Frank Rosaly, Tim Daisy
06:21
274
Нет комментариев. Ваш будет первым!