Вы используете незарегистрированную версию компонента "Вкладки"!

Поиск

(Free Improvisation, Free Jazz) [CD] Edward Ricart Quartet + Paul Dunmall (Herb Robertson, Jason Ajemian, Andrew Barker) - Chamaeleon - 2013, FLAC (image+.cue), lossless

(Free Improvisation, Free Jazz) [CD] Edward Ricart Quartet + Paul Dunmall (Herb Robertson, Jason Ajemian, Andrew Barker) - Chamaeleon - 2013, FLAC (image+.cue), lossless
Треклист:
Edward Ricart Quartet + Paul Dunmall / Chamaeleon
Жанр: Free Improvisation, Free Jazz
Носитель: CD
Страна-производитель диска: US
Год издания: 2013
Издатель (лейбл): New Atlantis Records
Номер по каталогу: NA-CD-008 CD
Аудиокодек: FLAC (*.flac)
Тип рипа: image+.cue
Битрейт аудио: lossless
Продолжительность: 67:48
Источник (релизер): CD
Наличие сканов в содержимом раздачи: нет
Треклист:
1. Forager 22:14
2. Real Orbital 3:56
3. Excavator 9:38
4. Blind Source 3:13
5. Elliptic Operators 19:06
6. Beelining 9:18
 
Лог создания рипа
Exact Audio Copy V1.0 beta 2 from 29. April 2011
EAC extraction logfile from 21. June 2014, 10:00
Edward Ricart Quartet + Paul Dunmall / Chamaeleon
Used drive : Optiarc DVD RW AD-7170A Adapter: 0 ID: 0
Read mode : Secure
Utilize accurate stream : Yes
Defeat audio cache : Yes
Make use of C2 pointers : No
Read offset correction : 48
Overread into Lead-In and Lead-Out : No
Fill up missing offset samples with silence : Yes
Delete leading and trailing silent blocks : No
Null samples used in CRC calculations : Yes
Used interface : Native Win32 interface for Win NT & 2000
Used output format : User Defined Encoder
Selected bitrate : 320 kBit/s
Quality : High
Add ID3 tag : No
Command line compressor : C:\Program Files\Exact Audio Copy\Flac\flac.exe
Additional command line options : -V -8 -T "Date=%year%" -T "Genre=%genre%" %source%
TOC of the extracted CD
Track | Start | Length | Start sector | End sector
---------------------------------------------------------
1 | 0:00.00 | 22:19.61 | 0 | 100485
2 | 22:19.61 | 4:02.51 | 100486 | 118686
3 | 26:22.37 | 9:42.07 | 118687 | 162343
4 | 36:04.44 | 3:16.31 | 162344 | 177074
5 | 39:21.00 | 19:10.01 | 177075 | 263325
6 | 58:31.01 | 9:17.59 | 263326 | 305159
Range status and errors
Selected range
Filename K:\ЕАС\Edward Ricart Quartet + Paul Dunmall - Chamaeleon.wav
Peak level 98.8 %
Extraction speed 1.9 X
Range quality 99.9 %
Test CRC E14C3F41
Copy CRC E14C3F41
Copy OK
No errors occurred
AccurateRip summary
Track 1 not present in database
Track 2 not present in database
Track 3 not present in database
Track 4 not present in database
Track 5 not present in database
Track 6 not present in database
None of the tracks are present in the AccurateRip database
End of status report
==== Log checksum E3470F4BB05BB164B318CCDC740A05B2F3B73A4F13A20AB4B3EA9A11A0159D7C ====
 
Содержание индексной карты (.CUE)
REM GENRE Jazz
REM DATE 2012
REM DISCID 460FE406
REM COMMENT "ExactAudioCopy v1.0b2"
PERFORMER "Edward Ricart Quartet + Paul Dunmall"
TITLE "Chamaeleon"
FILE "Edward Ricart Quartet + Paul Dunmall - Chamaeleon.flac" WAVE
TRACK 01 AUDIO
TITLE "Forager"
PERFORMER "Edward Ricart Quartet + Paul Dunmall"
ISRC GBACM1200368
FLAGS DCP
INDEX 01 00:00:00
TRACK 02 AUDIO
TITLE "Real Orbital"
PERFORMER "Edward Ricart Quartet + Paul Dunmall"
ISRC GBACM1200369
FLAGS DCP
INDEX 00 22:13:61
INDEX 01 22:19:61
TRACK 03 AUDIO
TITLE "Excavator"
PERFORMER "Edward Ricart Quartet + Paul Dunmall"
ISRC GBACM1200370
FLAGS DCP
INDEX 00 26:16:37
INDEX 01 26:22:37
TRACK 04 AUDIO
TITLE "Blind Source"
PERFORMER "Edward Ricart Quartet + Paul Dunmall"
ISRC GBACM1200371
FLAGS DCP
INDEX 00 35:59:44
INDEX 01 36:04:44
TRACK 05 AUDIO
TITLE "Elliptic Operators"
PERFORMER "Edward Ricart Quartet + Paul Dunmall"
ISRC GBACM1200372
FLAGS DCP
INDEX 00 39:17:00
INDEX 01 39:21:00
TRACK 06 AUDIO
TITLE "Beelining"
PERFORMER "Edward Ricart Quartet + Paul Dunmall"
ISRC GBACM1200373
FLAGS DCP
INDEX 00 58:26:01
INDEX 01 58:31:01
Доп. информация: Recorded in Brooklyn at Seizures Palace, Vision Festival 2012.
 
Об альбоме (сборнике)
Chamaeleon is a stellar new offering from electric guitarist Edward Ricart's powerful working quartet, augmented by a very special guest... firebrand English saxophonist Paul Dunmall. Paul is one of the finest players in realm of creative new music, best characterized by his devastatingly original playing in countless configurations, and a massive discography boasting an unsurpassed level of creativity and an unimaginably high level of consistency.
Edward Ricart is a rising star of improvised music, with collaborations ranging from members of the rock bands Fugazi, Tortoise, Black Flag, and Bardo Pond to Merzbow, and jazz legends Peter Broetzmann, William Hooker, Ches Smith, Travis Laplante, Kevin Shea, Roy Campbell, Nick Millevoi, Tim Daisy, Marty Ehrlich, Angelica Sanchez, and Steve Swell, among many others. He is also a member of Ohio-based avant rock trio Hyrrokkin, and Washington DC free-rock duo Matta Gawa.
Recorded in Brooklyn at Seizures Palace (Swans, Akron/Family, Charles Gayle, Angels of Light) during Paul's visit to New York City for the Vision Festival in 2012, Ricart pulled together his group for a rare opportunity to document Dunmall along a crew of Downtown New York's finest... The band features legendary trumpeter Herb Robertson, bassist Jason Ajemian (Marc Ribot, Ken Vandermark, Rob Mazurek), and drummer Andrew Barker (Gold Sparkle Band, Sirone, William Parker).
This set of music is freely improvised, yet exists firmly within the jazz tradition. The record boasts a serious backbone, coupled with a massively parallel frontline. This unit dynamically pairs spontaneously composed, angular lyricism with limber fluidity from the rhythm section, pushing the boundaries of improvised quintet music from the outset. Chamaeleon is stunningly cohesive, marking the musicians as masters of ebb, flow, assertiveness and energetic expression.
Like the Edward Ricart Quartet's debut for UK-based SLAM Productions, Ancon, this record boasts gorgeous graphic design and layout by New Atlantis Records' very own Senior Design Coordinator... The Designer's Republic- perhaps best known for their work for Warp Records, Autechre, and Aphex Twin, among many others!
 
Состав
Paul Dunmall - tenor saxophone
Herb Robertson - trumpet, little instruments
Jason Ajemian - bass
Andrew Barker - drums
Edward Ricart - guitar
По всем вопросам пишите личное сообщение пользователю M0p94ok.
02:55
169
Нет комментариев. Ваш будет первым!