Вы используете незарегистрированную версию компонента "Вкладки"!

Поиск

(Free Improvisation, Free Jazz) [CD] Assif Tsahar, Mark Dresser, Gerry Hemingway - Code Re(A)D - 2013, FLAC (tracks+.cue), lossless

(Free Improvisation, Free Jazz) [CD] Assif Tsahar, Mark Dresser, Gerry Hemingway - Code Re(A)D - 2013, FLAC (tracks+.cue), lossless
Треклист:
Assif Tsahar, Mark Dresser, Gerry Hemingway / Code Re(A)D
Жанр: Free Improvisation, Free Jazz
Носитель: CD
Страна-производитель диска (релиза): US
Год издания: 2013
Издатель (лейбл): Hopscotch Records
Номер по каталогу: CD-HOP-48
Аудиокодек: FLAC (*.flac)
Тип рипа: tracks+.cue
Битрейт аудио: lossless
Продолжительность: 62:36
Источник (релизер): CD
Наличие сканов в содержимом раздачи: нет
Треклист:
1. Comprehensive Passages 9:38
2. Oblique Interpretations 6:33
3. Deceptive Responses 4:57
4. Expanded Metaphors 5:57
5. Resounding Reasoning 10:00
6. Endangered Artifacts 2:44
7. (A)pplied Syntax 10:24
8. Divided Layers 12:24
 
Лог создания рипа
Exact Audio Copy V1.0 beta 3 from 29. August 2011
EAC extraction logfile from 3. January 2015, 12:42
Assif Tsahar, Mark Dresser, Gerry Hemingway / Code Re(A)D
Used drive : ASUS DRW-24F1ST a Adapter: 0 ID: 0
Read mode : Secure
Utilize accurate stream : Yes
Defeat audio cache : Yes
Make use of C2 pointers : No
Read offset correction : 6
Overread into Lead-In and Lead-Out : No
Fill up missing offset samples with silence : Yes
Delete leading and trailing silent blocks : No
Null samples used in CRC calculations : Yes
Used interface : Native Win32 interface for Win NT & 2000
Gap handling : Appended to previous track
Used output format : User Defined Encoder
Selected bitrate : 320 kBit/s
Quality : High
Add ID3 tag : No
Command line compressor : D:\Programs\Exact Audio Copy\Flac\flac.exe
Additional command line options : -V -8 -T "Genre=%genre%" -T "Artist=%artist%" -T "Title=%title%" -T "Album=%albumtitle%" -T "Date=%year%" -T "Tracknumber=%tracknr%" -T "Comment=%comment%" %source%
TOC of the extracted CD
Track | Start | Length | Start sector | End sector
---------------------------------------------------------
1 | 0:00.00 | 9:37.64 | 0 | 43338
2 | 9:37.64 | 6:32.69 | 43339 | 72807
3 | 16:10.58 | 4:56.54 | 72808 | 95061
4 | 21:07.37 | 5:57.26 | 95062 | 121862
5 | 27:04.63 | 10:00.00 | 121863 | 166862
6 | 37:04.63 | 2:44.29 | 166863 | 179191
7 | 39:49.17 | 10:23.67 | 179192 | 225983
8 | 50:13.09 | 12:23.44 | 225984 | 281752
Track 1
Filename D:\EAC\01 Comprehensive Passages.wav
Pre-gap length 0:00:02.00
Peak level 94.3 %
Extraction speed 4.8 X
Track quality 100.0 %
Test CRC 6245EA2D
Copy CRC 6245EA2D
Copy OK
Track 2
Filename D:\EAC\02 Oblique Interpretations.wav
Pre-gap length 0:00:01.74
Peak level 94.4 %
Extraction speed 5.4 X
Track quality 100.0 %
Test CRC FE45DC41
Copy CRC FE45DC41
Copy OK
Track 3
Filename D:\EAC\03 Deceptive Responses.wav
Pre-gap length 0:00:01.74
Peak level 94.8 %
Extraction speed 5.8 X
Track quality 100.0 %
Test CRC 3CBFEEA1
Copy CRC 3CBFEEA1
Copy OK
Track 4
Filename D:\EAC\04 Expanded Metaphors.wav
Peak level 69.8 %
Extraction speed 6.3 X
Track quality 100.0 %
Test CRC 8F05E05C
Copy CRC 8F05E05C
Copy OK
Track 5
Filename D:\EAC\05 Resounding Reasoning.wav
Pre-gap length 0:00:01.74
Peak level 98.7 %
Extraction speed 7.1 X
Track quality 100.0 %
Test CRC CE1414ED
Copy CRC CE1414ED
Copy OK
Track 6
Filename D:\EAC\06 Endangered Artifacts.wav
Pre-gap length 0:00:01.74
Peak level 83.7 %
Extraction speed 6.4 X
Track quality 100.0 %
Test CRC 1D72FC39
Copy CRC 1D72FC39
Copy OK
Track 7
Filename D:\EAC\07 Applied Syntax.wav
Pre-gap length 0:00:03.74
Peak level 96.2 %
Extraction speed 7.9 X
Track quality 100.0 %
Test CRC 68ED72D9
Copy CRC 68ED72D9
Copy OK
Track 8
Filename D:\EAC\08 Divided Layers.wav
Pre-gap length 0:00:02.74
Peak level 95.8 %
Extraction speed 8.5 X
Track quality 100.0 %
Test CRC A001C372
Copy CRC A001C372
Copy OK
No errors occurred
End of status report
==== Log checksum 9646E8028F5EA4A6D76FCFC9CD654D204953F653785636BD7BE480CD4B936452 ====
 
Содержание индексной карты (.CUE)
REM GENRE Jazz
REM DATE 2013
REM DISCID 6E0EAC08
REM COMMENT "ExactAudioCopy v1.0b3"
PERFORMER "Assif Tsahar, Mark Dresser, Gerry Hemingway"
TITLE "Code Re(A)D"
FILE "01 Comprehensive Passages.wav" WAVE
TRACK 01 AUDIO
TITLE "Comprehensive Passages"
PERFORMER "Assif Tsahar, Mark Dresser, Gerry Hemingway"
INDEX 01 00:00:00
TRACK 02 AUDIO
TITLE "Oblique Interpretations"
PERFORMER "Assif Tsahar, Mark Dresser, Gerry Hemingway"
INDEX 00 09:35:65
FILE "02 Oblique Interpretations.wav" WAVE
INDEX 01 00:00:00
TRACK 03 AUDIO
TITLE "Deceptive Responses"
PERFORMER "Assif Tsahar, Mark Dresser, Gerry Hemingway"
INDEX 00 06:30:70
FILE "03 Deceptive Responses.wav" WAVE
INDEX 01 00:00:00
FILE "04 Expanded Metaphors.wav" WAVE
TRACK 04 AUDIO
TITLE "Expanded Metaphors"
PERFORMER "Assif Tsahar, Mark Dresser, Gerry Hemingway"
INDEX 01 00:00:00
TRACK 05 AUDIO
TITLE "Resounding Reasoning"
PERFORMER "Assif Tsahar, Mark Dresser, Gerry Hemingway"
INDEX 00 05:55:27
FILE "05 Resounding Reasoning.wav" WAVE
INDEX 01 00:00:00
TRACK 06 AUDIO
TITLE "Endangered Artifacts"
PERFORMER "Assif Tsahar, Mark Dresser, Gerry Hemingway"
INDEX 00 09:58:01
FILE "06 Endangered Artifacts.wav" WAVE
INDEX 01 00:00:00
TRACK 07 AUDIO
TITLE "Applied Syntax"
PERFORMER "Assif Tsahar, Mark Dresser, Gerry Hemingway"
INDEX 00 02:40:30
FILE "07 Applied Syntax.wav" WAVE
INDEX 01 00:00:00
TRACK 08 AUDIO
TITLE "Divided Layers"
PERFORMER "Assif Tsahar, Mark Dresser, Gerry Hemingway"
INDEX 00 10:20:68
FILE "08 Divided Layers.wav" WAVE
INDEX 01 00:00:00
Доп. информация: Recorded by Nitzan Levi live at Levontin 7 in May 2011.
 
Об альбоме (сборнике)
"Code Re(A)d is a live recording from Levontin 7 of the hard blowing and free flowing trio of Assif Tsahar (tenor sax and percussion), Mark Dresser (double bass) and Gerry Hemingway (drums, percussion). Their music is totally improvised but with their big ears and strong sense of composition they keep moving into new musical territories at times turning on a dime as they move into new musical territories. Gerry Hemingway And Mark Dresser have been playing together for more then 20 years since their days with Anthony Braxton and their rapport is telepathic, Assif enjoy the honors but does not hold back and it's give us the rare joy of pushing them into some territories we rarely hear them go to."-Hopscotch
 
Состав
Assif Tsahar-tenor saxophone, percussion
Mark Dresser-double bass
Gerry Hemingway-drums, percussion
По всем вопросам пишите личное сообщение пользователю M0p94ok.
08:00
128
Нет комментариев. Ваш будет первым!