Вы используете незарегистрированную версию компонента "Вкладки"!

Поиск

(Free Improvisation) Frank Gratkowski, Fred Van Hove, Tony Oxley - grathovox - 2002, FLAC (tracks+.cue) lossless

Треклист:
Frank Gratkowski, Fred Van Hove, Tony Oxley / grathovox
Жанр: Free Improvisation
Страна-производитель диска: США
Год издания диска: 2002
Издатель (лейбл): Nuscope Recordings
Номер по каталогу: nuscope CD 1012
Страна: Германия, Бельгия, Великобритания
Аудио кодек: FLAC (*.flac)
Тип рипа: tracks+.cue
Битрейт аудио: lossless
Продолжительность: 57:07
Источник (релизер): другой трекер (iwals)
Наличие сканов в содержимом раздачи: да
Треклист:
1 Tartar 4:46
2 Carrousel 11:36
3 Tiddledit 5:55
4 Bâtons Rompus 6:16
5 Foreplay/Vorspiel 5:17
6 Witchy 3:22
7 Trenches/Tranches 19:38
8 Final Bounce 6:32
Recorded on 14 November 2000 at Erholunghaus Bayer, Leverkusen, Germany
 
Лог создания рипа
Exact Audio Copy V0.99 prebeta 4 from 23. January 2008
EAC extraction logfile from 10. July 2008, 19:45
Gratkowski-Van Hove-Oxley / GratHovOx
Used drive : _NEC DVD_RW ND-3500AG Adapter: 2 ID: 0
Read mode : Secure
Utilize accurate stream : Yes
Defeat audio cache : Yes
Make use of C2 pointers : No
Read offset correction : 48
Overread into Lead-In and Lead-Out : No
Fill up missing offset samples with silence : Yes
Delete leading and trailing silent blocks : No
Null samples used in CRC calculations : Yes
Used interface : Native Win32 interface for Win NT & 2000
Gap handling : Appended to previous track
Used output format : Internal WAV Routines
Sample format : 44.100 Hz; 16 Bit; Stereo
TOC of the extracted CD
Track | Start | Length | Start sector | End sector
---------------------------------------------------------
1 | 0:00.00 | 4:49.17 | 0 | 21691
2 | 4:49.17 | 11:36.65 | 21692 | 73956
3 | 16:26.07 | 5:55.63 | 73957 | 100644
4 | 22:21.70 | 6:16.40 | 100645 | 128884
5 | 28:38.35 | 5:17.12 | 128885 | 152671
6 | 33:55.47 | 3:22.45 | 152672 | 167866
7 | 37:18.17 | 19:37.53 | 167867 | 256194
8 | 56:55.70 | 6:27.67 | 256195 | 285286
Track 1
Filename E:\New Rip\Gratkowski-Van Hove-Oxley - GratHovOx\01 - Tartar.wav
Pre-gap length 0:00:02.00
Peak level 45.3 %
Track quality 99.9 %
Test CRC 95766ADA
Copy CRC 95766ADA
Copy OK
Track 2
Filename E:\New Rip\Gratkowski-Van Hove-Oxley - GratHovOx\02 - Carrousel.wav
Pre-gap length 0:00:04.56
Peak level 100.0 %
Track quality 100.0 %
Test CRC 6259FF42
Copy CRC 6259FF42
Copy OK
Track 3
Filename E:\New Rip\Gratkowski-Van Hove-Oxley - GratHovOx\03 - Tiddledit.wav
Pre-gap length 0:00:04.89
Peak level 89.9 %
Track quality 100.0 %
Test CRC 0F13801B
Copy CRC 0F13801B
Copy OK
Track 4
Filename E:\New Rip\Gratkowski-Van Hove-Oxley - GratHovOx\04 - Batons Rompus.wav
Pre-gap length 0:00:04.84
Peak level 100.0 %
Track quality 100.0 %
Test CRC F117D2B8
Copy CRC F117D2B8
Copy OK
Track 5
Filename E:\New Rip\Gratkowski-Van Hove-Oxley - GratHovOx\05 - Foreplay-Vorspiel.wav
Pre-gap length 0:00:04.80
Peak level 56.7 %
Track quality 100.0 %
Test CRC 2EB90356
Copy CRC 2EB90356
Copy OK
Track 6
Filename E:\New Rip\Gratkowski-Van Hove-Oxley - GratHovOx\06 - Witchy.wav
Pre-gap length 0:00:04.73
Peak level 64.8 %
Track quality 100.0 %
Test CRC 965AC29F
Copy CRC 965AC29F
Copy OK
Track 7
Filename E:\New Rip\Gratkowski-Van Hove-Oxley - GratHovOx\07 - Trenches-Tranches.wav
Pre-gap length 0:00:05.02
Peak level 100.0 %
Track quality 100.0 %
Test CRC 2767389D
Copy CRC 2767389D
Copy OK
Track 8
Filename E:\New Rip\Gratkowski-Van Hove-Oxley - GratHovOx\08 - Final Bounce.wav
Pre-gap length 0:00:04.70
Peak level 84.6 %
Track quality 100.0 %
Test CRC 26B36976
Copy CRC 26B36976
Copy OK
No errors occurred
End of status report
 
Содержание индексной карты (.CUE)
REM GENRE Jazz
REM DATE 2002
REM DISCID 5F0EDB08
REM COMMENT "ExactAudioCopy v0.99pb4"
PERFORMER "Gratkowski-Van Hove-Oxley"
TITLE "GratHovOx"
FILE "01 - Tartar.wav" WAVE
TRACK 01 AUDIO
TITLE "Tartar"
PERFORMER "Gratkowski-Van Hove-Oxley"
INDEX 01 00:00:00
TRACK 02 AUDIO
TITLE "Carrousel"
PERFORMER "Gratkowski-Van Hove-Oxley"
INDEX 00 04:44:50
FILE "02 - Carrousel.wav" WAVE
INDEX 01 00:00:00
TRACK 03 AUDIO
TITLE "Tiddledit "
PERFORMER "Gratkowski-Van Hove-Oxley"
INDEX 00 11:31:73
FILE "03 - Tiddledit.wav" WAVE
INDEX 01 00:00:00
TRACK 04 AUDIO
TITLE "Bвtons Rompus"
PERFORMER "Gratkowski-Van Hove-Oxley"
INDEX 00 05:51:00
FILE "04 - Batons Rompus.wav" WAVE
INDEX 01 00:00:00
TRACK 05 AUDIO
TITLE "Foreplay-Vorspiel"
PERFORMER "Gratkowski-Van Hove-Oxley"
INDEX 00 06:11:55
FILE "05 - Foreplay-Vorspiel.wav" WAVE
INDEX 01 00:00:00
TRACK 06 AUDIO
TITLE "Witchy"
PERFORMER "Gratkowski-Van Hove-Oxley"
INDEX 00 05:12:32
FILE "06 - Witchy.wav" WAVE
INDEX 01 00:00:00
TRACK 07 AUDIO
TITLE "Trenches-Tranches"
PERFORMER "Gratkowski-Van Hove-Oxley"
INDEX 00 03:17:43
FILE "07 - Trenches-Tranches.wav" WAVE
INDEX 01 00:00:00
TRACK 08 AUDIO
TITLE "Final Bounce "
PERFORMER "Gratkowski-Van Hove-Oxley"
INDEX 00 19:33:00
FILE "08 - Final Bounce.wav" WAVE
INDEX 01 00:00:00
 
Лог проверки качества
AUDIOCHECKER v2.0 beta (build 457) - by Dester - opdester@freemail.hu
~~~~~~~~~~~~~~~~~~~~~~~~~~~~~~~~~~
-=== DO NOT EDIT THIS FILE! ===-
Path: ...\Gratkowski-Van Hove-Oxley - GratHovOx (2002) [FLAC]
1 -=- 01 - Tartar.flac -=- CDDA (100%)
2 -=- 02 - Carrousel.flac -=- CDDA (100%)
3 -=- 03 - Tiddledit.flac -=- CDDA (100%)
4 -=- 04 - Batons Rompus.flac -=- CDDA (100%)
5 -=- 05 - Foreplay-Vorspiel.flac -=- CDDA (100%)
6 -=- 06 - Witchy.flac -=- CDDA (100%)
7 -=- 07 - Trenches-Tranches.flac -=- CDDA (100%)
8 -=- 08 - Final Bounce.flac -=- CDDA (100%)
Summary 100,00% CDDA
21464948
 
Состав
Frank Gratkowski alto saxophone, clarinet, bass clarinet and contrabass clarinet
Fred Van Hove hamburg steinway d piano and accordion
Tony Oxley drums and percussion
Any questions -> support@pro-jazz.com. По всем вопросам пишите -> support@pro-jazz.com
11:03
143
Нет комментариев. Ваш будет первым!