Вы используете незарегистрированную версию компонента "Вкладки"!

Поиск

(Free Improvisation) Frank Gratkowski, Alexey Lapin, Sebastian Gramss, Helen Bledsoe - Unplugged Mind - 2009, FLAC (image+.cue), lossless

(Free Improvisation) Frank Gratkowski, Alexey Lapin, Sebastian Gramss, Helen Bledsoe - Unplugged Mind - 2009, FLAC (image+.cue), lossless
Треклист:
Frank Gratkowski, Alexey Lapin, Sebastian Gramss, Helen Bledsoe / Unplugged Mind
Жанр: Free Improvisation
Страна-производитель диска: UK
Год издания диска: 2009
Издатель (лейбл): Leo Records
Номер по каталогу: LR 540
Аудиокодек: FLAC (*.flac)
Тип рипа: image+.cue
Битрейт аудио: lossless
Продолжительность: 52:41
Источник (релизер): cd
Наличие сканов в содержимом раздачи: нет
Треклист:
1 Unplugged Mind (9:06)
2 Retain the Aspect (10:40)
3 Turn to (10:47)
4 In Harmony (4:19)
5 Voice Over the ... (9:35)
6 Speak Silent (8:15)
 
Лог создания рипа
Exact Audio Copy V1.0 beta 2 from 29. April 2011
EAC extraction logfile from 8. September 2012, 9:06
Gratkowski, Lapin, Gramss, Bledsoe / Unplugged Mind
Used drive : Optiarc DVD RW AD-7170A Adapter: 0 ID: 0
Read mode : Secure
Utilize accurate stream : Yes
Defeat audio cache : Yes
Make use of C2 pointers : No
Read offset correction : 48
Overread into Lead-In and Lead-Out : No
Fill up missing offset samples with silence : Yes
Delete leading and trailing silent blocks : No
Null samples used in CRC calculations : Yes
Used interface : Native Win32 interface for Win NT & 2000
Used output format : User Defined Encoder
Selected bitrate : 320 kBit/s
Quality : High
Add ID3 tag : No
Command line compressor : C:\Program Files\Exact Audio Copy\Flac\flac.exe
Additional command line options : -V -8 -T "Date=%year%" -T "Genre=%genre%" %source%
TOC of the extracted CD
Track | Start | Length | Start sector | End sector
---------------------------------------------------------
1 | 0:00.00 | 9:05.59 | 0 | 40933
2 | 9:05.59 | 10:40.23 | 40934 | 88956
3 | 19:46.07 | 10:47.14 | 88957 | 137495
4 | 30:33.21 | 4:19.05 | 137496 | 156925
5 | 34:52.26 | 9:34.46 | 156926 | 200021
6 | 44:26.72 | 8:14.49 | 200022 | 237120
Range status and errors
Selected range
Filename K:\ЕАС\Gratkowski, Lapin, Gramss, Bledsoe - Unplugged Mind.wav
Peak level 95.9 %
Extraction speed 4.8 X
Range quality 99.9 %
Test CRC FAA944BE
Copy CRC FAA944BE
Copy OK
No errors occurred
AccurateRip summary
Track 1 accurately ripped (confidence 1) [2496DA8E] (AR v2)
Track 2 accurately ripped (confidence 1) [B3D95B60] (AR v2)
Track 3 accurately ripped (confidence 1) [BDEB7828] (AR v2)
Track 4 accurately ripped (confidence 1) [32C41FC8] (AR v2)
Track 5 accurately ripped (confidence 1) [488621F7] (AR v2)
Track 6 accurately ripped (confidence 1) [C1D81308] (AR v2)
All tracks accurately ripped
End of status report
==== Log checksum E6CD2FAD56CD392F90043B4E21313AD336EDEA0E4050F18C66235150DE15D592 ====
 
Содержание индексной карты (.CUE)
REM GENRE Jazz
REM DATE 2009
REM DISCID 5A0C5906
REM COMMENT "ExactAudioCopy v1.0b2"
PERFORMER "Gratkowski, Lapin, Gramss, Bledsoe"
TITLE "Unplugged Mind"
FILE "Gratkowski, Lapin, Gramss, Bledsoe - Unplugged Mind.flac" WAVE
TRACK 01 AUDIO
TITLE "Unplugged Mind"
PERFORMER "Gratkowski, Lapin, Gramss, Bledsoe"
ISRC 000000000000
INDEX 01 00:00:00
TRACK 02 AUDIO
TITLE "Retain the Aspect"
PERFORMER "Gratkowski, Lapin, Gramss, Bledsoe"
ISRC 000000000000
INDEX 01 09:05:59
TRACK 03 AUDIO
TITLE "Turn to"
PERFORMER "Gratkowski, Lapin, Gramss, Bledsoe"
ISRC 000000000000
INDEX 01 19:46:07
TRACK 04 AUDIO
TITLE "In Harmony"
PERFORMER "Gratkowski, Lapin, Gramss, Bledsoe"
ISRC 000000000000
INDEX 01 30:33:21
TRACK 05 AUDIO
TITLE "Voice Over the..."
PERFORMER "Gratkowski, Lapin, Gramss, Bledsoe"
ISRC 000000000000
INDEX 01 34:52:26
TRACK 06 AUDIO
TITLE "Speak Silent"
PERFORMER "Gratkowski, Lapin, Gramss, Bledsoe"
ISRC 000000000000
INDEX 01 44:26:72
 
Состав
Frank Gratkowski (alto saxophone, clarinet, bass clarinet)
Alexey Lapin (piano)
Sebastian Gramss (double bass, "spacebass")
Helen Bledsoe (track 6) (flute)
По всем вопросам пишите личное сообщение пользователю M0p94ok.
18:04
165
Нет комментариев. Ваш будет первым!