Вы используете незарегистрированную версию компонента "Вкладки"!

Поиск

(Free Improvisation, FMR) [CD] Thomas Heberer & Pascal Niggenkemper - Miner's Pick - 2014, FLAC (tracks+.cue), lossless

(Free Improvisation, FMR) [CD] Thomas Heberer & Pascal Niggenkemper - Miner's Pick - 2014, FLAC (tracks+.cue), lossless
Треклист:
Thomas Heberer & Pascal Niggenkemper / Miner's Pick
Жанр: Free Improvisation
Страна-производитель диска (релиза): U.K.
Год издания: 2014
Издатель (лейбл): FMR Records
Номер по каталогу: FMRCD383-0714
Аудиокодек: FLAC (*.flac)
Тип рипа: tracks+.cue
Битрейт аудио: lossless
Продолжительность: 52:10
Источник (релизер): я
Наличие сканов в содержимом раздачи: да
Треклист:
1. The Lion Cavern (5:31)
2. 79 (3:30)
3. Eisenherz (5:00)
4. Azurite (5:35)
5. Flint (4:18)
6. Black Powder (3:35)
7. 47 (5:26)
8. Topaz Mountain (6:15)
9. Diabolite (5:50)
10. Seltene Erden (7:10)
All music written by Thomas Heberer and Pascal Niggenkemper.
Recorded in Brooklyn, January-February 2014.
Thomas Heberer – Cornet
Pascal Niggenkemper – Double Bass
 
Лог создания рипа
Exact Audio Copy V1.1 from 23. June 2015
EAC extraction logfile from 4. July 2015, 16:29
Thomas Heberer & Pascal Niggenkemper / Miner's Pick
Used drive : SlimtypeeNAU508 5 Adapter: 1 ID: 1
Read mode : Secure
Utilize accurate stream : Yes
Defeat audio cache : Yes
Make use of C2 pointers : No
Read offset correction : 6
Overread into Lead-In and Lead-Out : No
Fill up missing offset samples with silence : Yes
Delete leading and trailing silent blocks : No
Null samples used in CRC calculations : Yes
Used interface : Native Win32 interface for Win NT & 2000
Gap handling : Appended to previous track
Used output format : User Defined Encoder
Selected bitrate : 768 kBit/s
Quality : High
Add ID3 tag : No
Command line compressor : C:\Program Files (x86)\Exact Audio Copy\Flac\flac.exe
Additional command line options : -8 -V -T "ARTIST=%artist%" -T "TITLE=%title%" -T "ALBUM=%albumtitle%" -T "DATE=%year%" -T "TRACKNUMBER=%tracknr%" -T "TOTALTRACKS=%numtracks%" -T "GENRE=%genre%" -T "ALBUMARTIST=%albumartist%" -T "ALBUM ARTIST=%albumartist%" -T "COMMENT=EAC Secure Mode, Test & Copy, AccurateRip, FLAC -8" %source%
TOC of the extracted CD
Track | Start | Length | Start sector | End sector
---------------------------------------------------------
1 | 0:00.00 | 5:31.00 | 0 | 24824
2 | 5:31.00 | 3:30.00 | 24825 | 40574
3 | 9:01.00 | 5:00.00 | 40575 | 63074
4 | 14:01.00 | 5:35.00 | 63075 | 88199
5 | 19:36.00 | 4:18.00 | 88200 | 107549
6 | 23:54.00 | 3:35.00 | 107550 | 123674
7 | 27:29.00 | 5:26.00 | 123675 | 148124
8 | 32:55.00 | 6:15.00 | 148125 | 176249
9 | 39:10.00 | 5:50.00 | 176250 | 202499
10 | 45:00.00 | 7:10.00 | 202500 | 234749
Track 1
Filename C:\EAC rips\01 - The Lion Cavern.wav
Pre-gap length 0:00:02.00
Peak level 99.9 %
Extraction speed 2.0 X
Track quality 99.9 %
Test CRC 947BEE9A
Copy CRC 947BEE9A
Accurately ripped (confidence 1) [CDFB1E6D] (AR v2)
Copy OK
Track 2
Filename C:\EAC rips\02 - 79.wav
Peak level 80.0 %
Extraction speed 2.5 X
Track quality 100.0 %
Test CRC 6A0EB543
Copy CRC 6A0EB543
Accurately ripped (confidence 1) [2BEEB432] (AR v2)
Copy OK
Track 3
Filename C:\EAC rips\03 - Eisenherz.wav
Peak level 95.0 %
Extraction speed 2.8 X
Track quality 100.0 %
Test CRC 3E5C6E83
Copy CRC 3E5C6E83
Accurately ripped (confidence 1) [5A73DD0D] (AR v2)
Copy OK
Track 4
Filename C:\EAC rips\04 - Azurite.wav
Peak level 100.0 %
Extraction speed 2.7 X
Track quality 99.9 %
Test CRC 9A0235F6
Copy CRC 9A0235F6
Accurately ripped (confidence 1) [D24CB972] (AR v2)
Copy OK
Track 5
Filename C:\EAC rips\05 - Flint.wav
Peak level 100.0 %
Extraction speed 2.9 X
Track quality 100.0 %
Test CRC DD5526DB
Copy CRC DD5526DB
Accurately ripped (confidence 1) [1CC9C48E] (AR v2)
Copy OK
Track 6
Filename C:\EAC rips\06 - Black Powder.wav
Peak level 100.0 %
Extraction speed 3.1 X
Track quality 100.0 %
Test CRC AF019F14
Copy CRC AF019F14
Accurately ripped (confidence 1) [C7A80CD6] (AR v2)
Copy OK
Track 7
Filename C:\EAC rips\07 - 47.wav
Peak level 100.0 %
Extraction speed 3.1 X
Track quality 99.9 %
Test CRC DA6C955C
Copy CRC DA6C955C
Accurately ripped (confidence 1) [D4FA5C18] (AR v2)
Copy OK
Track 8
Filename C:\EAC rips\08 - Topaz Mountain.wav
Peak level 99.9 %
Extraction speed 3.9 X
Track quality 100.0 %
Test CRC 94DB0DC4
Copy CRC 94DB0DC4
Accurately ripped (confidence 1) [6DFB3FAD] (AR v2)
Copy OK
Track 9
Filename C:\EAC rips\09 - Diabolite.wav
Peak level 99.9 %
Extraction speed 3.9 X
Track quality 100.0 %
Test CRC D90D2868
Copy CRC D90D2868
Accurately ripped (confidence 1) [0F9E6272] (AR v2)
Copy OK
Track 10
Filename C:\EAC rips\10 - Seltene Erden.wav
Peak level 99.9 %
Extraction speed 4.2 X
Track quality 100.0 %
Test CRC D4D07ECF
Copy CRC D4D07ECF
Accurately ripped (confidence 1) [CB93FF4E] (AR v2)
Copy OK
All tracks accurately ripped
No errors occurred
End of status report
---- CUETools DB Plugin V2.1.6
[CTDB TOCID: Ga4QZNkJNvemOpemIA8WV1LNO0I-] found
Submit result: already submitted
Track | CTDB Status
1 | (1/1) Accurately ripped
2 | (1/1) Accurately ripped
3 | (1/1) Accurately ripped
4 | (1/1) Accurately ripped
5 | (1/1) Accurately ripped
6 | (1/1) Accurately ripped
7 | (1/1) Accurately ripped
8 | (1/1) Accurately ripped
9 | (1/1) Accurately ripped
10 | (1/1) Accurately ripped
==== Log checksum 192B11887D7B53B1847E9D34B14ED8EC99776D3A5C20425118CB78D491B54F87 ====
 
Содержание индексной карты (.CUE)
REM GENRE "FMR Records FMRCD383-0714"
REM DATE 2014
REM DISCID 810C3A0A
REM COMMENT "ExactAudioCopy v1.1"
PERFORMER "Thomas Heberer & Pascal Niggenkemper"
TITLE "Miner's Pick"
FILE "01 - The Lion Cavern.wav" WAVE
TRACK 01 AUDIO
TITLE "The Lion Cavern"
PERFORMER "Thomas Heberer & Pascal Niggenkemper"
FLAGS DCP
INDEX 01 00:00:00
FILE "02 - 79.wav" WAVE
TRACK 02 AUDIO
TITLE "79"
PERFORMER "Thomas Heberer & Pascal Niggenkemper"
FLAGS DCP
INDEX 01 00:00:00
FILE "03 - Eisenherz.wav" WAVE
TRACK 03 AUDIO
TITLE "Eisenherz"
PERFORMER "Thomas Heberer & Pascal Niggenkemper"
FLAGS DCP
INDEX 01 00:00:00
FILE "04 - Azurite.wav" WAVE
TRACK 04 AUDIO
TITLE "Azurite"
PERFORMER "Thomas Heberer & Pascal Niggenkemper"
FLAGS DCP
INDEX 01 00:00:00
FILE "05 - Flint.wav" WAVE
TRACK 05 AUDIO
TITLE "Flint"
PERFORMER "Thomas Heberer & Pascal Niggenkemper"
FLAGS DCP
INDEX 01 00:00:00
FILE "06 - Black Powder.wav" WAVE
TRACK 06 AUDIO
TITLE "Black Powder"
PERFORMER "Thomas Heberer & Pascal Niggenkemper"
FLAGS DCP
INDEX 01 00:00:00
FILE "07 - 47.wav" WAVE
TRACK 07 AUDIO
TITLE "47"
PERFORMER "Thomas Heberer & Pascal Niggenkemper"
FLAGS DCP
INDEX 01 00:00:00
FILE "08 - Topaz Mountain.wav" WAVE
TRACK 08 AUDIO
TITLE "Topaz Mountain"
PERFORMER "Thomas Heberer & Pascal Niggenkemper"
FLAGS DCP
INDEX 01 00:00:00
FILE "09 - Diabolite.wav" WAVE
TRACK 09 AUDIO
TITLE "Diabolite"
PERFORMER "Thomas Heberer & Pascal Niggenkemper"
FLAGS DCP
INDEX 01 00:00:00
FILE "10 - Seltene Erden.wav" WAVE
TRACK 10 AUDIO
TITLE "Seltene Erden"
PERFORMER "Thomas Heberer & Pascal Niggenkemper"
FLAGS DCP
INDEX 01 00:00:00
По всем вопросам пишите личное сообщение пользователю M0p94ok.
14:19
147
Нет комментариев. Ваш будет первым!