Вы используете незарегистрированную версию компонента "Вкладки"!

Поиск

(Free Improvisation, Experimental) Surrender to the Air (Marshall Allen, Trey Anastasio, Oteil Burbridge, John Medeski, Marc Ribot, Michael Ray) - Surrender to the Air - 1996, FLAC (tracks+.cue), lossless

(Free Improvisation, Experimental) Surrender to the Air (Marshall Allen, Trey Anastasio, Oteil Burbridge, John Medeski, Marc Ribot, Michael Ray) - Surrender to the Air - 1996, FLAC (tracks+.cue), lossless
Треклист:
Surrender to the Air / Surrender to the Air
Жанр: Free Improvisation, Experimental
Год издания: 1996
Издатель (лейбл): Elektra
Страна: USA
Аудиокодек: FLAC (*.flac)
Тип рипа: tracks+.cue
Битрейт аудио: lossless
Продолжительность: 00:49:23
Источник (релизер): cktbreaker
Наличие сканов в содержимом раздачи: да
Треклист:
1 Intro
2 And Furthermore
3 We Deflate
4 And Furthermor
5 Down
6 Intro
7 And Furthermore
8 And Furthermore
9 Out
 
Лог создания рипа
Exact Audio Copy V0.99 prebeta 3 from 28. July 2007
EAC extraction logfile from 5. February 2008, 10:04
Surrender to the Air / Surrender to the Air
Used drive : TSSTcorpCD/DVDW TS-H652M Adapter: 1 ID: 0
Read mode : Secure
Utilize accurate stream : Yes
Defeat audio cache : Yes
Make use of C2 pointers : No
Read offset correction : 6
Overread into Lead-In and Lead-Out : No
Fill up missing offset samples with silence : Yes
Delete leading and trailing silent blocks : No
Null samples used in CRC calculations : Yes
Used interface : Installed external ASPI interface
Gap handling : Appended to previous track
Used output format : User Defined Encoder
Selected bitrate : 192 kBit/s
Quality : High
Add ID3 tag : No
Command line compressor : C:\Program Files\Exact Audio Copy\Flac\flac.exe
Additional command line options : -8 -A tukey(0.25) -A gauss(0.1875) -b 4096 -V -T "artist=%a" -T "title=%t" -T "album=%g" -T "date=%y" -T "tracknumber=%n" -T "genre=%m" %s --sector-align
TOC of the extracted CD
Track | Start | Length | Start sector | End sector
---------------------------------------------------------
1 | 0:00.32 | 1:48.53 | 32 | 8184
2 | 1:49.10 | 7:18.20 | 8185 | 41054
3 | 9:07.30 | 7:15.12 | 41055 | 73691
4 | 16:22.42 | 7:06.00 | 73692 | 105641
5 | 23:28.42 | 2:51.45 | 105642 | 118511
6 | 26:20.12 | 2:00.45 | 118512 | 127556
7 | 28:20.57 | 4:11.55 | 127557 | 146436
8 | 32:32.37 | 11:10.23 | 146437 | 196709
9 | 43:42.60 | 5:38.32 | 196710 | 222091
Track 1
Filename D:\Surrender To The Air [elektra 1996] [FLAC]\01 - Surrender to the Air - Intro.wav
Pre-gap length 0:00:02.42
Peak level 97.7 %
Track quality 100.0 %
Test CRC 249F0923
Copy CRC 249F0923
Accurately ripped (confidence 4) [596AC48D]
Copy OK
Track 2
Filename D:\Surrender To The Air [elektra 1996] [FLAC]\02 - Surrender to the Air - And Furthermore.wav
Pre-gap length 0:00:00.04
Peak level 97.7 %
Track quality 100.0 %
Test CRC 04930122
Copy CRC 04930122
Accurately ripped (confidence 4) [909CD538]
Copy OK
Track 3
Filename D:\Surrender To The Air [elektra 1996] [FLAC]\03 - Surrender to the Air - We Deflate.wav
Pre-gap length 0:00:00.04
Peak level 97.7 %
Track quality 100.0 %
Test CRC 3C34DD41
Copy CRC 3C34DD41
Accurately ripped (confidence 4) [9C60168E]
Copy OK
Track 4
Filename D:\Surrender To The Air [elektra 1996] [FLAC]\04 - Surrender to the Air - And Furthermore.wav
Pre-gap length 0:00:00.02
Peak level 97.7 %
Track quality 99.9 %
Test CRC 15887218
Copy CRC 15887218
Accurately ripped (confidence 4) [B9844878]
Copy OK
Track 5
Filename D:\Surrender To The Air [elektra 1996] [FLAC]\05 - Surrender to the Air - Down.wav
Pre-gap length 0:00:00.02
Peak level 94.1 %
Track quality 100.0 %
Test CRC 6D04FAA6
Copy CRC 6D04FAA6
Accurately ripped (confidence 4) [FFDCA9DB]
Copy OK
Track 6
Filename D:\Surrender To The Air [elektra 1996] [FLAC]\06 - Surrender to the Air - Intro.wav
Pre-gap length 0:00:00.60
Peak level 33.8 %
Track quality 100.0 %
Test CRC 00CA96DD
Copy CRC 00CA96DD
Accurately ripped (confidence 4) [D0193512]
Copy OK
Track 7
Filename D:\Surrender To The Air [elektra 1996] [FLAC]\07 - Surrender to the Air - And Furthermore.wav
Pre-gap length 0:00:00.02
Peak level 97.7 %
Track quality 100.0 %
Test CRC BA015DBC
Copy CRC BA015DBC
Accurately ripped (confidence 4) [92A4FC3A]
Copy OK
Track 8
Filename D:\Surrender To The Air [elektra 1996] [FLAC]\08 - Surrender to the Air - And Furthermore.wav
Pre-gap length 0:00:00.02
Peak level 97.7 %
Track quality 100.0 %
Test CRC 3F17FA69
Copy CRC 3F17FA69
Accurately ripped (confidence 4) [C5C0EE8E]
Copy OK
Track 9
Filename D:\Surrender To The Air [elektra 1996] [FLAC]\09 - Surrender to the Air - Out.wav
Pre-gap length 0:00:00.04
Peak level 97.7 %
Track quality 100.0 %
Test CRC E9F76BAC
Copy CRC E9F76BAC
Accurately ripped (confidence 4) [D92EF995]
Copy OK
All tracks accurately ripped
No errors occurred
End of status report
 
Содержание индексной карты (.CUE)
REM GENRE Jazz
REM DATE 1996
REM DISCID 6D0B9109
REM COMMENT "ExactAudioCopy v0.99pb3"
PERFORMER "Surrender to the Air"
TITLE "Surrender to the Air"
FILE "01 - Surrender to the Air - Intro.wav" WAVE
TRACK 01 AUDIO
TITLE "Intro"
PERFORMER "Surrender to the Air"
PREGAP 00:00:32
INDEX 01 00:00:00
TRACK 02 AUDIO
TITLE "And Furthermore"
PERFORMER "Surrender to the Air"
INDEX 00 01:48:50
FILE "02 - Surrender to the Air - And Furthermore.wav" WAVE
INDEX 01 00:00:00
TRACK 03 AUDIO
TITLE "We Deflate"
PERFORMER "Surrender to the Air"
INDEX 00 07:18:17
FILE "03 - Surrender to the Air - We Deflate.wav" WAVE
INDEX 01 00:00:00
TRACK 04 AUDIO
TITLE "And Furthermore"
PERFORMER "Surrender to the Air"
INDEX 00 07:15:10
FILE "04 - Surrender to the Air - And Furthermore.wav" WAVE
INDEX 01 00:00:00
TRACK 05 AUDIO
TITLE "Down"
PERFORMER "Surrender to the Air"
INDEX 00 07:05:73
FILE "05 - Surrender to the Air - Down.wav" WAVE
INDEX 01 00:00:00
TRACK 06 AUDIO
TITLE "Intro"
PERFORMER "Surrender to the Air"
INDEX 00 02:51:00
FILE "06 - Surrender to the Air - Intro.wav" WAVE
INDEX 01 00:00:00
TRACK 07 AUDIO
TITLE "And Furthermore"
PERFORMER "Surrender to the Air"
INDEX 00 02:00:43
FILE "07 - Surrender to the Air - And Furthermore.wav" WAVE
INDEX 01 00:00:00
TRACK 08 AUDIO
TITLE "And Furthermore"
PERFORMER "Surrender to the Air"
INDEX 00 04:11:53
FILE "08 - Surrender to the Air - And Furthermore.wav" WAVE
INDEX 01 00:00:00
TRACK 09 AUDIO
TITLE "Out"
PERFORMER "Surrender to the Air"
INDEX 00 11:10:20
FILE "09 - Surrender to the Air - Out.wav" WAVE
INDEX 01 00:00:00
 
Об исполнителе (группе)
 
Об альбоме (сборнике)
Trey’s first official side project from Phish found him exploring free jazz. Surrender to the Air was a colorful exploration of sound, texture and space, featuring long sections of free group improvisation connected by short segments conducted by Trey. The group produced one studio album released in March of 1996 followed by two live performances at the Academy in New York City on April 1st and 2nd, 1996.
In Trey’s words: "It was very loose. Everybody was just set up in the room, and you'd just come and go as you please. Sometimes it broke down to just two people. Most of the session was spent doing free stuff. [But, he adds,] The sound I wanted was free form and the structure I wanted was structure. It was basically a matter of figuring how to get both of those things. The problem that I don't like about most free-form things is that it meanders. And to my ear, this doesn't meander; it has direction all the time. It keeps going down a course." trey.com
 
Состав
Marshall Allen - saxophone
Trey Anastasio - guitar
Kofi Burbridge - flute
Oteil Burbridge - bass
Damon R. Choice - xylophone
Jon Fishman - drums
Bob Gullotti - percussion
James Harvey - trombone
John Medeski - keyboards
Michael Ray - trumpet
Marc Ribot – guitar
Any questions -> support@pro-jazz.com. По всем вопросам пишите -> support@pro-jazz.com
10:17
165
Нет комментариев. Ваш будет первым!