Поиск

(Free Improvisation, Experimental) [CD] Polwechsel (Michael Moser, Werner Dafeldecker, Burkhard Beins, Martin Brandlmayr) - Traces Of Wood - 2013, FLAC (tracks+.cue), lossless

Треклист:
Polwechsel / Traces Of Wood
Жанр: Free Improvisation, Experimental
Носитель: CD
Страна-производитель диска (релиза): Switzerland
Год издания: 2013
Издатель (лейбл): hatOLOGY
Номер по каталогу: 712
Аудиокодек: FLAC (*.flac)
Тип рипа: tracks+.cue
Битрейт аудио: lossless
Продолжительность: 60:55
Источник (релизер): whatcd (bounb)
Наличие сканов в содержимом раздачи: нет
Треклист:
1 Adapt/Oppose 14:19
2 Grain Bending #1 19:08
3 Nia Rain Circuit 14:47
4 S 64°14" W 56°37" 12:40
 
Лог создания рипа
X Lossless Decoder version 20140504 (147.0)
XLD extraction logfile from 2014-09-28 00:36:09 +0400
Polwechsel / Traces Of Wood
Used drive : HL-DT-ST DVDRW GX30N (revision RP09)
Media type : Pressed CD
Ripper mode : XLD Secure Ripper
Disable audio cache : OK for the drive with a cache less than 1375KiB
Make use of C2 pointers : NO
Read offset correction : 6
Max retry count : 100
Gap status : Analyzed, Appended (except HTOA)
TOC of the extracted CD
Track | Start | Length | Start sector | End sector
---------------------------------------------------------
1 | 00:00:00 | 14:19:25 | 0 | 64449
2 | 14:19:25 | 19:08:12 | 64450 | 150561
3 | 33:27:37 | 14:47:17 | 150562 | 217103
4 | 48:14:54 | 12:40:31 | 217104 | 274134
AccurateRip Summary
Disc not found in AccurateRip DB.
All Tracks
Album gain : 0.28 dB
Peak : 0.933716
Statistics
Read error : 0
Jitter error (maybe fixed) : 0
Retry sector count : 0
Damaged sector count : 0
Track 01
Filename : /Users/Shared/Grabbed/Polwechsel - 2013 - Traces Of Wood [FLAC]/01 - Adapt - Oppose.flac
Pre-gap length : 00:02:00
Track gain : -0.88 dB
Peak : 0.840820
CRC32 hash (test run) : 54910572
CRC32 hash : 54910572
CRC32 hash (skip zero) : 849D7FAC
AccurateRip v1 signature : 518D6E24
AccurateRip v2 signature : DB50FC35
->Track not present in AccurateRip database.
Statistics
Read error : 0
Jitter error (maybe fixed) : 0
Retry sector count : 0
Damaged sector count : 0
Track 02
Filename : /Users/Shared/Grabbed/Polwechsel - 2013 - Traces Of Wood [FLAC]/02 - Grain Bending #1.flac
Track gain : -0.24 dB
Peak : 0.915619
CRC32 hash (test run) : 53D3AE94
CRC32 hash : 53D3AE94
CRC32 hash (skip zero) : 9F4271A3
AccurateRip v1 signature : F4BFCDE5
AccurateRip v2 signature : CE91C6D7
->Track not present in AccurateRip database.
Statistics
Read error : 0
Jitter error (maybe fixed) : 0
Retry sector count : 0
Damaged sector count : 0
Track 03
Filename : /Users/Shared/Grabbed/Polwechsel - 2013 - Traces Of Wood [FLAC]/03 - Nia Rain Circuit.flac
Track gain : 3.33 dB
Peak : 0.933716
CRC32 hash (test run) : 83DE17DA
CRC32 hash : 83DE17DA
CRC32 hash (skip zero) : 7B462F8A
AccurateRip v1 signature : D2EF8B4E
AccurateRip v2 signature : 1823DEB7
->Track not present in AccurateRip database.
Statistics
Read error : 0
Jitter error (maybe fixed) : 0
Retry sector count : 0
Damaged sector count : 0
Track 04
Filename : /Users/Shared/Grabbed/Polwechsel - 2013 - Traces Of Wood [FLAC]/04 - S 64°14' W 56°37'.flac
Track gain : 3.15 dB
Peak : 0.898743
CRC32 hash (test run) : C4230C9D
CRC32 hash : C4230C9D
CRC32 hash (skip zero) : DB38F7F1
AccurateRip v1 signature : 8EA8917B
AccurateRip v2 signature : A528E6C4
->Track not present in AccurateRip database.
Statistics
Read error : 0
Jitter error (maybe fixed) : 0
Retry sector count : 0
Damaged sector count : 0
No errors occurred
End of status report
-----BEGIN XLD SIGNATURE-----
yZfZ5IeojP8BX3ZV36_8eJg6tGt.o3Pm9J8lf8GReY.IjRmfJgk7e3BsPhKvmIOuO8i2SHXk3I3Gp6GLzVTnP.18BfS0b8tpPRZVigG
-----END XLD SIGNATURE-----
 
Содержание индексной карты (.CUE)
TITLE "Traces Of Wood"
PERFORMER "Polwechsel"
REM GENRE "Free Jazz"
REM DATE "2013"
REM DISCNUMBER 1
REM TOTALDISCS 1
REM DISCID 350E4704
REM REPLAYGAIN_ALBUM_GAIN 0.28 dB
REM REPLAYGAIN_ALBUM_PEAK 0.933716
FILE "01 - Adapt - Oppose.flac" WAVE
TRACK 01 AUDIO
TITLE "Adapt / Oppose"
PERFORMER "Polwechsel"
SONGWRITER "Burkhard Beins"
ISRC CH1311301349
REM REPLAYGAIN_TRACK_GAIN -0.88 dB
REM REPLAYGAIN_TRACK_PEAK 0.840820
INDEX 01 00:00:00
FILE "02 - Grain Bending #1.flac" WAVE
TRACK 02 AUDIO
TITLE "Grain Bending #1"
PERFORMER "Polwechsel"
SONGWRITER "Michael Moser"
ISRC CH1311301350
REM REPLAYGAIN_TRACK_GAIN -0.24 dB
REM REPLAYGAIN_TRACK_PEAK 0.915619
INDEX 01 00:00:00
FILE "03 - Nia Rain Circuit.flac" WAVE
TRACK 03 AUDIO
TITLE "Nia Rain Circuit"
PERFORMER "Polwechsel"
SONGWRITER "Martin Brandlmayr"
ISRC CH1311301351
REM REPLAYGAIN_TRACK_GAIN 3.33 dB
REM REPLAYGAIN_TRACK_PEAK 0.933716
INDEX 01 00:00:00
FILE "04 - S 64.14 W 56.37.flac" WAVE
TRACK 04 AUDIO
TITLE "S 64°14" W 56°37""
PERFORMER "Polwechsel"
SONGWRITER "Werner Dafeldecker"
ISRC CH1311301352
REM REPLAYGAIN_TRACK_GAIN 3.15 dB
REM REPLAYGAIN_TRACK_PEAK 0.898743
INDEX 01 00:00:00
Доп. информация: Recorded in March 2010 at SWR Baden Baden by Alfred Habelitz and in January 2011 at Technische Universität Wien, Kuppelsaal
 
Об альбоме (сборнике)
Central problems of a common aesthetic and history of musical materiality are taken as the starting point for the indivi- dual concepts in the four new Polwechsel pieces. The works re-interpret this aesthetic from the perspective of the diffe- rent approaches of the musicians. However, Traces of Wood is definitely not only about the traces that shared musical material and different personal styles leave in the respective work. It is above all about reflecting the common history that, clearly audible, has been deposited in the materials, personal styles and compositions, and this history is revisited in every nuance of the music ... Traces of Wood is a discourse that follows a double movement. It is the sum of a collective effort, and multiplies the results that can be drawn from this sum.
 
Состав
Cello – Michael Moser
Double Bass – Werner Dafeldecker
Drums, Percussion – Burkhard Beins, Martin Brandlmayr
По всем вопросам пишите личное сообщение пользователю M0p94ok.
07:23
161
Нет комментариев. Ваш будет первым!