Поиск

(Free Improvisation, Experimental) [CD] Le Grand Frisson (Christophe Berthet, Vinz Vonlanthen, Cyril Bondi, Jean-Jacques Pedretti a. o.) - On / Off - 2013, FLAC (image+.cue), lossless

(Free Improvisation, Experimental) [CD] Le Grand Frisson (Christophe Berthet, Vinz Vonlanthen, Cyril Bondi, Jean-Jacques Pedretti a. o.) - On / Off - 2013, FLAC (image+.cue), lossless
Le Grand Frisson – On / Off
Жанр: Free Improvisation, Experimental
Носитель: CD
Страна-производитель диска: Portugal
Год издания: 2013
Издатель (лейбл): Creative Sources Recordings
Номер по каталогу: CS 241 CD
Аудиокодек: FLAC (*.flac)
Тип рипа: image+.cue
Битрейт аудио: lossless
Продолжительность: 43:19
Источник (релизер): я
Наличие сканов в содержимом раздачи: да
Треклист:
1. On / Off 6:35
2. Canopée 6:35
3. Bateau ivre 3:29
4. In a séquentiel mode 6:46
5. Herbes folles 5:05
6. Gymnocarpe 3:15
7. Latitudes arctiques 8:30
8. Inéluctable 3:04
All music by Le Grand Frisson. Directed by Christophe Berthet.
Recorded on April 10/11, 2012 at Théâtre 2.21, Lausanne, Switzerland.
Christophe Berthet – Soprano & Alto Saxophones
Vinz Vonlanthen – Guitar
Cyril Bondi – Percussion
Jean-Jacques Pedretti – Trombone
Dragos Tara – Double Bass, Electronics
Laurent Bruttin – Clarinet, Bass Clarinet
Patricia Bosshard – Violin
Yannick Barman – Trumpet
 
Лог создания рипа
Exact Audio Copy V1.0 beta 3 from 29. August 2011
EAC extraction logfile from 7. February 2014, 16:15
Le Grand Frisson / On / Off
Used drive : SlimtypeeNAU508 5 Adapter: 1 ID: 0
Read mode : Secure
Utilize accurate stream : Yes
Defeat audio cache : Yes
Make use of C2 pointers : No
Read offset correction : 6
Overread into Lead-In and Lead-Out : No
Fill up missing offset samples with silence : Yes
Delete leading and trailing silent blocks : No
Null samples used in CRC calculations : Yes
Used interface : Native Win32 interface for Win NT & 2000
Used output format : User Defined Encoder
Selected bitrate : 768 kBit/s
Quality : High
Add ID3 tag : No
Command line compressor : C:\Program Files (x86)\Exact Audio Copy\Flac\flac.exe
Additional command line options : -8 -V -T "ARTIST=%artist%" -T "TITLE=%title%" -T "ALBUM=%albumtitle%" -T "DATE=%year%" -T "TRACKNUMBER=%tracknr%" -T "GENRE=%genre%" -T "PERFORMER=%albuminterpret%" -T "COMPOSER=%composer%" %haslyrics%--tag-from-file=LYRICS="%lyricsfile%"%haslyrics% -T "ALBUMARTIST=%albumartist%" -T "DISCNUMBER=%cdnumber%" -T "TOTALDISCS=%totalcds%" -T "TOTALTRACKS=%numtracks%" -T "COMMENT=%comment%" %source% -o %dest%
TOC of the extracted CD
Track | Start | Length | Start sector | End sector
---------------------------------------------------------
1 | 0:00.00 | 6:34.39 | 0 | 29588
2 | 6:34.39 | 6:35.31 | 29589 | 59244
3 | 13:09.70 | 3:29.23 | 59245 | 74942
4 | 16:39.18 | 6:46.16 | 74943 | 105408
5 | 23:25.34 | 5:05.07 | 105409 | 128290
6 | 28:30.41 | 3:15.23 | 128291 | 142938
7 | 31:45.64 | 8:29.65 | 142939 | 181178
8 | 40:15.54 | 3:03.45 | 181179 | 194948
Range status and errors
Selected range
Filename C:\EAC rips\Le Grand Frisson - On - Off (2013) [FLAC]\Le Grand Frisson - On - Off.wav
Peak level 100.0 %
Extraction speed 1.7 X
Range quality 100.0 %
Test CRC EFE86CE7
Copy CRC EFE86CE7
Copy OK
No errors occurred
AccurateRip summary
Track 1 not present in database
Track 2 not present in database
Track 3 not present in database
Track 4 not present in database
Track 5 not present in database
Track 6 not present in database
Track 7 not present in database
Track 8 not present in database
None of the tracks are present in the AccurateRip database
End of status report
---- CUETools DB Plugin V2.1.4
[CTDB TOCID: 6a1witLFC2_TxJVzoAFn.cKHHhQ-] disk not present in database
Submit result: 6a1witLFC2_TxJVzoAFn.cKHHhQ- has been uploaded
==== Log checksum 719590B4938E9D26D62C4ED16B82E65DE8D515C28F091DD738150B3059F09076 ====
 
Содержание индексной карты (.CUE)
REM GENRE Experimental
REM DATE 2013
REM DISCID 5D0A2708
REM COMMENT "ExactAudioCopy v1.0b3"
PERFORMER "Le Grand Frisson"
TITLE "On / Off"
FILE "Le Grand Frisson - On - Off.flac" WAVE
TRACK 01 AUDIO
TITLE "On / Off
PERFORMER "Le Grand Frisson"
INDEX 01 00:00:00
TRACK 02 AUDIO
TITLE "Canopée "
PERFORMER "Le Grand Frisson"
INDEX 01 06:34:39
TRACK 03 AUDIO
TITLE "Bateau ivre"
PERFORMER "Le Grand Frisson"
INDEX 01 13:09:70
TRACK 04 AUDIO
TITLE "In a séquentiel mode"
PERFORMER "Le Grand Frisson"
INDEX 01 16:39:18
TRACK 05 AUDIO
TITLE "Herbes folles"
PERFORMER "Le Grand Frisson"
INDEX 01 23:25:34
TRACK 06 AUDIO
TITLE "Gymnocarpe"
PERFORMER "Le Grand Frisson"
INDEX 01 28:30:41
TRACK 07 AUDIO
TITLE "Latitudes arctiques"
PERFORMER "Le Grand Frisson"
INDEX 01 31:45:64
TRACK 08 AUDIO
TITLE "Inéluctable"
PERFORMER "Le Grand Frisson"
INDEX 01 40:15:54
23:21
240
Нет комментариев. Ваш будет первым!