Вы используете незарегистрированную версию компонента "Вкладки"!

Поиск

(Free Improvisation) Evan Parker - The Snake Decides - 2003 (1986), FLAC (tracks) lossless

(Free Improvisation) Evan Parker - The Snake Decides - 2003 (1986), FLAC (tracks) lossless
Треклист:
Evan Parker / The Snake Decides
Жанр: Free Improvisation
Страна-производитель диска: Великобритания
Год издания диска: 2003
Издатель (лейбл): Psi
Номер по каталогу: 03.06 (Reissue of LP 49)
Страна: Великобритания
Аудио кодек: FLAC (*.flac)
Тип рипа: tracks
Битрейт аудио: lossless
Продолжительность: 44:43
Источник (релизер): вот.сиди (neonlimb)
Наличие сканов в содержимом раздачи: нет
Треклист:
1-The Snake Decides 19:56
2-Leipzig Folly 11:42
3-Buriden's Ass 6:29
4-Haine's Last Tape 6:01
Recorded January 30, 1986 in St. Paul's Church, Oxford.
 
Лог создания рипа
X Lossless Decoder version 20101212 (126.2)
XLD extraction logfile from 2011-02-03 19:00:42 -0500
Evan Parker / The Snake Decides
Used drive : TSSTcorp CDDVDW SH-S223L (revision SB03)
Ripper mode : CDParanoia III 10.2
Disable audio cache : OK for the drive with a cache less than 2750KiB
Make use of C2 pointers : NO
Read offset correction : 6
Max retry count : 100
Gap status : Analyzed, Appended
TOC of the extracted CD
Track | Start | Length | Start sector | End sector
---------------------------------------------------------
1 | 00:00:00 | 20:04:26 | 0 | 90325
2 | 20:04:26 | 11:55:23 | 90326 | 143973
3 | 31:59:49 | 06:38:01 | 143974 | 173824
4 | 38:37:50 | 06:05:08 | 173825 | 201207
AccurateRip Summary
Track 01 : OK (confidence 2)
Track 02 : OK (confidence 2)
Track 03 : OK (confidence 2)
Track 04 : OK (confidence 2)
->All tracks accurately ripped.
All Tracks
Album gain : -3.99 dB
Peak : 0.974823
Statistics
Read error : 0
Skipped (treated as error) : 0
Edge jitter error (maybe fixed) : 0
Atom jitter error (maybe fixed) : 0
Drift error (maybe fixed) : 0
Dropped bytes error (maybe fixed) : 0
Duplicated bytes error (maybe fixed) : 0
Track 01
Filename : /Users/mwaddell/Downloads/__Uploads/The Snake Decidessss/01 - The Snake Decides.flac
Pre-gap length : 00:02:00
Track gain : -4.70 dB
Peak : 0.974823
CRC32 hash (test run) : E9E9EDBD
CRC32 hash : E9E9EDBD
CRC32 hash (skip zero) : B44BA9D2
AccurateRip signature : 378548E6
->Accurately ripped! (confidence 2)
Statistics
Read error : 0
Skipped (treated as error) : 0
Edge jitter error (maybe fixed) : 0
Atom jitter error (maybe fixed) : 0
Drift error (maybe fixed) : 0
Dropped bytes error (maybe fixed) : 0
Duplicated bytes error (maybe fixed) : 0
Inconsistency in error sectors : 0
Track 02
Filename : /Users/mwaddell/Downloads/__Uploads/The Snake Decidessss/02 - Leipzig Folly.flac
Pre-gap length : 00:08:26
Track gain : -3.45 dB
Peak : 0.958862
CRC32 hash (test run) : 67692F2E
CRC32 hash : 67692F2E
CRC32 hash (skip zero) : B6669D11
AccurateRip signature : AE3584A8
->Accurately ripped! (confidence 2)
Statistics
Read error : 0
Skipped (treated as error) : 0
Edge jitter error (maybe fixed) : 0
Atom jitter error (maybe fixed) : 0
Drift error (maybe fixed) : 0
Dropped bytes error (maybe fixed) : 0
Duplicated bytes error (maybe fixed) : 0
Inconsistency in error sectors : 0
Track 03
Filename : /Users/mwaddell/Downloads/__Uploads/The Snake Decidessss/03 - Buriden's Ass.flac
Pre-gap length : 00:09:54
Track gain : 0.36 dB
Peak : 0.970184
CRC32 hash (test run) : 47FDBB79
CRC32 hash : 47FDBB79
CRC32 hash (skip zero) : 01E7DB00
AccurateRip signature : 42A1465C
->Accurately ripped! (confidence 2)
Statistics
Read error : 0
Skipped (treated as error) : 0
Edge jitter error (maybe fixed) : 0
Atom jitter error (maybe fixed) : 0
Drift error (maybe fixed) : 0
Dropped bytes error (maybe fixed) : 0
Duplicated bytes error (maybe fixed) : 0
Inconsistency in error sectors : 0
Track 04
Filename : /Users/mwaddell/Downloads/__Uploads/The Snake Decidessss/04 - Haine's Last Tape.flac
Pre-gap length : 00:04:17
Track gain : -3.36 dB
Peak : 0.902954
CRC32 hash (test run) : 9884B63C
CRC32 hash : 9884B63C
CRC32 hash (skip zero) : 4D6BA869
AccurateRip signature : 91BA90B2
->Accurately ripped! (confidence 2)
Statistics
Read error : 0
Skipped (treated as error) : 0
Edge jitter error (maybe fixed) : 0
Atom jitter error (maybe fixed) : 0
Drift error (maybe fixed) : 0
Dropped bytes error (maybe fixed) : 0
Duplicated bytes error (maybe fixed) : 0
Inconsistency in error sectors : 0
No errors occurred
End of status report
 
Лог проверки качества
AUDIOCHECKER v2.0 beta (build 457) - by Dester - opdester@freemail.hu
~~~~~~~~~~~~~~~~~~~~~~~~~~~~~~~~~~
-=== DO NOT EDIT THIS FILE! ===-
Path: ...\The Snake Decides (FLAC)
1 -=- 01 - The Snake Decides.flac -=- CDDA (100%)
2 -=- 02 - Leipzig Folly.flac -=- CDDA (100%)
3 -=- 03 - Buriden's Ass.flac -=- CDDA (99%)
4 -=- 04 - Haine's Last Tape.flac -=- CDDA (99%)
Summary 99,50% CDDA
188929556
 
Состав
Evan Parker - soprano saxophone
Any questions -> support@pro-jazz.com. По всем вопросам пишите -> support@pro-jazz.com
08:09
170
Нет комментариев. Ваш будет первым!