Вы используете незарегистрированную версию компонента "Вкладки"!

Поиск

(Free Improvisation, Emanem) Spontaneous Music Ensemble (Kenny Wheeler, Paul Rutherford, Trevor Watts, Evan Parker, Derek Bailey, Barry Guy, John Stevens) - Withdrawal - 1997 (1966-67), FLAC (tracks+.cue), lossless

Треклист:
Spontaneous Music Ensemble - Withdrawal
Жанр: Free Improvisation
Год выпуска диска: 1997 (1966-67)
Производитель диска: Emanem (4020)
Источник: вот.сиди (huxleyorwell)
Аудио кодек: FLAC
Тип рипа: tracks+.cue
Битрейт аудио: lossless
Продолжительность: 1:18:38
Трэклист:
1 - WITHDRAWAL SOUNDTRACK - PART 1A - 5:19
2 - WITHDRAWAL SOUNDTRACK - PART 1B - 5:07
3 - WITHDRAWAL SOUNDTRACK - PART 1C - 7:49
4 - WITHDRAWAL SOUNDTRACK - PART 2 - 13:42
5 - WITHDRAWAL SEQUENCE 1 - 11:22
6 - WITHDRAWAL SEQUENCE 2 - 10:51
7 - WITHDRAWAL SEQUENCE 3 "C4" - 2:34
8 - SEEING SOUNDS & HEARING COLOURS - INTRODUCTION "Puddles, Raindrops & Circles" - 4:02
9 - SEEING SOUNDS & HEARING COLOURS - MOVEMENT 1 - 4:43
10 - SEEING SOUNDS & HEARING COLOURS - MOVEMENT 2 "C" - 5:15
11 - SEEING SOUNDS & HEARING COLOURS - MOVEMENT 3 - 7:23
All analogue studio recordings made in London by EDDIE KRAMER
1-4: 1966 SEPTEMBER
5-11: 1967 MARCH
Total time 78:41
All previously unissued
All compositions by John Stevens
KENNY WHEELER trumpet, flugelhorn, percussion
PAUL RUTHERFORD trombone, percussion
TREVOR WATTS oboe, alto saxophone, flute & voice, percussion
EVAN PARKER soprano saxophone, tenor saxophone, percussion
DEREK BAILEY amplified guitar (on 5-11 only)
BARRY GUY double bass, piano
JOHN STEVENS drums & cymbals, percussion
В описании на сайте Emanem написано, что это - самая ранняя из опубликованных записей Эвана Паркера и Барри Гая.
 
Отчёт EAC
Exact Audio Copy V0.99 prebeta 4 from 23. January 2008
EAC extraction logfile from 8. January 2009, 20:06
Spontaneous Music Ensemble / Withdrawal
Used drive : HL-DT-STDVDRAM GSA-H10N Adapter: 3 ID: 1
Read mode : Secure
Utilize accurate stream : Yes
Defeat audio cache : Yes
Make use of C2 pointers : No
Read offset correction : 12
Overread into Lead-In and Lead-Out : No
Fill up missing offset samples with silence : Yes
Delete leading and trailing silent blocks : No
Null samples used in CRC calculations : Yes
Used interface : Installed external ASPI interface
Gap handling : Appended to previous track
Used output format : User Defined Encoder
Selected bitrate : 128 kBit/s
Quality : High
Add ID3 tag : No
Command line compressor : C:\Archivos de programa\Exact Audio Copy\Flac\flac.exe
Additional command line options : -8 -A tukey(0.25) -A gauss(0.1875) -b 4096 -V -T "artist=%a" -T "title=%t" -T "album=%g" -T "date=%y" -T "tracknumber=%n" -T "genre=%m" %s --sector-align
TOC of the extracted CD
Track | Start | Length | Start sector | End sector
---------------------------------------------------------
1 | 0:00.00 | 5:18.56 | 0 | 23905
2 | 5:18.56 | 5:06.73 | 23906 | 46928
3 | 10:25.54 | 7:50.62 | 46929 | 82240
4 | 18:16.41 | 13:49.74 | 82241 | 144489
5 | 32:06.40 | 11:24.08 | 144490 | 195797
6 | 43:30.48 | 10:53.46 | 195798 | 244818
7 | 54:24.19 | 2:44.08 | 244819 | 257126
8 | 57:08.27 | 4:03.66 | 257127 | 275417
9 | 61:12.18 | 4:45.06 | 275418 | 296798
10 | 65:57.24 | 5:16.74 | 296799 | 320572
11 | 71:14.23 | 7:23.30 | 320573 | 353827
Track 1
Filename C:\Documents and Settings\william\Mis documentos\Mi mъsica\Withdrawal\01 - Spontaneous Music Ensemble - Part 1A .wav
Pre-gap length 0:00:02.00
Peak level 65.6 %
Track quality 100.0 %
Test CRC B7918A89
Copy CRC B7918A89
Copy OK
Track 2
Filename C:\Documents and Settings\william\Mis documentos\Mi mъsica\Withdrawal\02 - Spontaneous Music Ensemble - Part 1B .wav
Peak level 85.0 %
Track quality 100.0 %
Test CRC E9617141
Copy CRC E9617141
Copy OK
Track 3
Filename C:\Documents and Settings\william\Mis documentos\Mi mъsica\Withdrawal\03 - Spontaneous Music Ensemble - Part 1C .wav
Peak level 84.3 %
Track quality 99.9 %
Test CRC B4625C4B
Copy CRC D8E2A0DA
Copy OK
Track 4
Filename C:\Documents and Settings\william\Mis documentos\Mi mъsica\Withdrawal\04 - Spontaneous Music Ensemble - Part 2 .wav
Peak level 87.7 %
Track quality 100.0 %
Test CRC 50AEF576
Copy CRC 50AEF576
Copy OK
Track 5
Filename C:\Documents and Settings\william\Mis documentos\Mi mъsica\Withdrawal\05 - Spontaneous Music Ensemble - Sequence 1 .wav
Pre-gap length 0:00:07.36
Peak level 92.2 %
Track quality 100.0 %
Test CRC 466B6B99
Copy CRC 466B6B99
Copy OK
Track 6
Filename C:\Documents and Settings\william\Mis documentos\Mi mъsica\Withdrawal\06 - Spontaneous Music Ensemble - Sequence 2 .wav
Peak level 99.1 %
Track quality 100.0 %
Test CRC 9A739F37
Copy CRC 9A739F37
Copy OK
Track 7
Filename C:\Documents and Settings\william\Mis documentos\Mi mъsica\Withdrawal\07 - Spontaneous Music Ensemble - Sequence 3 'C4' .wav
Peak level 97.4 %
Track quality 100.0 %
Test CRC 17F43209
Copy CRC 17F43209
Copy OK
Track 8
Filename C:\Documents and Settings\william\Mis documentos\Mi mъsica\Withdrawal\08 - Spontaneous Music Ensemble - Introduction 'Puddles, Raindrops & Circles' .wav
Pre-gap length 0:00:08.72
Peak level 81.3 %
Track quality 100.0 %
Test CRC 1000647B
Copy CRC 1000647B
Copy OK
Track 9
Filename C:\Documents and Settings\william\Mis documentos\Mi mъsica\Withdrawal\09 - Spontaneous Music Ensemble - Movement 1 .wav
Peak level 86.9 %
Track quality 100.0 %
Test CRC 444ACE88
Copy CRC 444ACE88
Copy OK
Track 10
Filename C:\Documents and Settings\william\Mis documentos\Mi mъsica\Withdrawal\10 - Spontaneous Music Ensemble - Movement 2 'C' .wav
Peak level 85.3 %
Track quality 100.0 %
Test CRC 15B8F1CE
Copy CRC 15B8F1CE
Copy OK
Track 11
Filename C:\Documents and Settings\william\Mis documentos\Mi mъsica\Withdrawal\11 - Spontaneous Music Ensemble - Movement 3 .wav
Peak level 100.0 %
Track quality 100.0 %
Test CRC D74BE67F
Copy CRC D74BE67F
Copy OK
No errors occurred
End of status report
 
Отчёт Audiocheckera
AUDIOCHECKER v1.2 - by Dester - opdester@freemail.hu
~~~~~~~~~~~~~~~~~
01 -===- H:\Песеньки\lossless\spontaneous music ensemble\withdrawal\01 - Spontaneous Music Ensemble - Part 1A .flac
Extracted successfully
Conclusion: This track looks like CDDA with probability 99%
02 -===- H:\Песеньки\lossless\spontaneous music ensemble\withdrawal\02 - Spontaneous Music Ensemble - Part 1B .flac
Extracted successfully
Conclusion: This track looks like CDDA with probability 100%
03 -===- H:\Песеньки\lossless\spontaneous music ensemble\withdrawal\03 - Spontaneous Music Ensemble - Part 1C .flac
Extracted successfully
Conclusion: This track looks like CDDA with probability 100%
04 -===- H:\Песеньки\lossless\spontaneous music ensemble\withdrawal\04 - Spontaneous Music Ensemble - Part 2 .flac
Extracted successfully
Conclusion: This track looks like CDDA with probability 100%
05 -===- H:\Песеньки\lossless\spontaneous music ensemble\withdrawal\05 - Spontaneous Music Ensemble - Sequence 1 .flac
Extracted successfully
Conclusion: This track looks like CDDA with probability 100%
06 -===- H:\Песеньки\lossless\spontaneous music ensemble\withdrawal\06 - Spontaneous Music Ensemble - Sequence 2 .flac
Extracted successfully
Conclusion: This track looks like CDDA with probability 100%
07 -===- H:\Песеньки\lossless\spontaneous music ensemble\withdrawal\07 - Spontaneous Music Ensemble - Sequence 3 'C4' .flac
Extracted successfully
Conclusion: This track looks like CDDA with probability 100%
08 -===- H:\Песеньки\lossless\spontaneous music ensemble\withdrawal\08 - Spontaneous Music Ensemble - Introduction 'Puddles, Raindrops & Circles' .flac
Extracted successfully
Conclusion: This track looks like CDDA with probability 100%
09 -===- H:\Песеньки\lossless\spontaneous music ensemble\withdrawal\09 - Spontaneous Music Ensemble - Movement 1 .flac
Extracted successfully
Conclusion: This track looks like CDDA with probability 100%
10 -===- H:\Песеньки\lossless\spontaneous music ensemble\withdrawal\10 - Spontaneous Music Ensemble - Movement 2 'C' .flac
Extracted successfully
Conclusion: This track looks like CDDA with probability 94%
11 -===- H:\Песеньки\lossless\spontaneous music ensemble\withdrawal\11 - Spontaneous Music Ensemble - Movement 3 .flac
Extracted successfully
Conclusion: This track looks like CDDA with probability 100%
 
cue
REM GENRE "Free Improvisation"
REM DATE 1966
REM DISCID A3126D0B
REM COMMENT "ExactAudioCopy v0.99pb4"
PERFORMER "Spontaneous Music Ensemble"
TITLE "Withdrawal"
FILE "01 - Spontaneous Music Ensemble - Part 1A .wav" WAVE
TRACK 01 AUDIO
TITLE "Part 1A"
PERFORMER "Spontaneous Music Ensemble"
INDEX 01 00:00:00
FILE "02 - Spontaneous Music Ensemble - Part 1B .wav" WAVE
TRACK 02 AUDIO
TITLE "Part 1B"
PERFORMER "Spontaneous Music Ensemble"
INDEX 01 00:00:00
FILE "03 - Spontaneous Music Ensemble - Part 1C .wav" WAVE
TRACK 03 AUDIO
TITLE "Part 1C"
PERFORMER "Spontaneous Music Ensemble"
INDEX 01 00:00:00
FILE "04 - Spontaneous Music Ensemble - Part 2 .wav" WAVE
TRACK 04 AUDIO
TITLE "Part 2"
PERFORMER "Spontaneous Music Ensemble"
INDEX 01 00:00:00
TRACK 05 AUDIO
TITLE "Sequence 1"
PERFORMER "Spontaneous Music Ensemble"
INDEX 00 13:42:47
FILE "05 - Spontaneous Music Ensemble - Sequence 1 .wav" WAVE
INDEX 01 00:00:00
FILE "06 - Spontaneous Music Ensemble - Sequence 2 .wav" WAVE
TRACK 06 AUDIO
TITLE "Sequence 2"
PERFORMER "Spontaneous Music Ensemble"
INDEX 01 00:00:00
FILE "07 - Spontaneous Music Ensemble - Sequence 3 'C4' .wav" WAVE
TRACK 07 AUDIO
TITLE "Sequence 3 'C4'"
PERFORMER "Spontaneous Music Ensemble"
INDEX 01 00:00:00
TRACK 08 AUDIO
TITLE "Introduction 'Puddles, Raindrops & Circles'"
PERFORMER "Spontaneous Music Ensemble"
INDEX 00 02:35:29
FILE "08 - Spontaneous Music Ensemble - Introduction 'Puddles, Raindrops & Circles' .wav" WAVE
INDEX 01 00:00:00
FILE "09 - Spontaneous Music Ensemble - Movement 1 .wav" WAVE
TRACK 09 AUDIO
TITLE "Movement 1"
PERFORMER "Spontaneous Music Ensemble"
INDEX 01 00:00:00
FILE "10 - Spontaneous Music Ensemble - Movement 2 'C' .wav" WAVE
TRACK 10 AUDIO
TITLE "Movement 2 'C'"
PERFORMER "Spontaneous Music Ensemble"
INDEX 01 00:00:00
FILE "11 - Spontaneous Music Ensemble - Movement 3 .wav" WAVE
TRACK 11 AUDIO
TITLE "Movement 3"
PERFORMER "Spontaneous Music Ensemble"
INDEX 01 00:00:00
По всем вопросам пишите личное сообщение пользователю M0p94ok.
20:43
154
Нет комментариев. Ваш будет первым!