Вы используете незарегистрированную версию компонента "Вкладки"!

Поиск

(Free Improvisation, EAI) nmperign (Bhob Rainey, Greg Kelley) / Jason Lescalleet - Love Me Two Times (2cd) - 2006, FLAC (tracks+.cue) lossless

Треклист:
nmperign / Jason Lescalleet / Love Me Two Times
Жанр: Free Improvisation, EAI
Страна-производитель диска: США
Год издания диска: 2006
Издатель (лейбл): Intransitive Recordings
Номер по каталогу: INT026
Страна: США
Аудио кодек: FLAC (*.flac)
Тип рипа: tracks+.cue
Битрейт аудио: lossless
Продолжительность: 2:08:27
Источник (релизер): вот.сиди (texturizer)
Наличие сканов в содержимом раздачи: нет
Треклист:
1-1 The Mystery Disease That Haunts My Town 6:42
1-2 Epenthesis 0:42
1-3 Four Ears 8:51
1-4 Revere 2:44
1-5 Fred 7:25
1-6 Julia 3:11
1-7 No. Eleven 2:46
1-8 HVAC 3:13
1-9 Sword! 6:33
1-10 Metal Gloves 0:50
1-11 Paper Gloves 0:53
1-12 Velvet Gloves 8:51
1-13 Presque Isle 2:33
1-14 Honorable Mention 3:11
2-1 The Prodigal Bastard 4:20
2-2 White Wall 23:23
2-3 I Remember 6:00
2-4 No. Twenty-Seven 3:11
2-5 Bottle At Park 4:11
2-6 Imaginary Friends 0:50
2-7 3:11
2-8 This Is Ruined 8:09
2-9 Burnt Offerings 16:47
 
Лог создания рипа
 
1
X Lossless Decoder version 20100511 (119.2)
XLD extraction logfile from 2010-05-12 13:35:57 -0700
Nmperign/Jason Lescalleet / Love Me Two Times (Disc 1)
Used drive : MATSHITA DVD-R UJ-857D (revision KCV9)
Use cdparanoia mode : YES (CDParanoia III 10.2 engine)
Disable audio cache : OK for the drive with cache less than 2750KB
Make use of C2 pointers : NO
Read offset correction : 102
Max retry count : 100
TOC of the extracted CD
Track | Start | Length | Start sector | End sector
---------------------------------------------------------
1 | 00:00:00 | 06:42:00 | 0 | 30149
2 | 06:42:00 | 00:42:00 | 30150 | 33299
3 | 07:24:00 | 08:51:00 | 33300 | 73124
4 | 16:15:00 | 02:44:00 | 73125 | 85424
5 | 18:59:00 | 07:25:00 | 85425 | 118799
6 | 26:24:00 | 03:11:00 | 118800 | 133124
7 | 29:35:00 | 02:46:00 | 133125 | 145574
8 | 32:21:00 | 03:13:00 | 145575 | 160049
9 | 35:34:00 | 06:33:00 | 160050 | 189524
10 | 42:07:00 | 00:50:00 | 189525 | 193274
11 | 42:57:00 | 00:53:00 | 193275 | 197249
12 | 43:50:00 | 08:51:00 | 197250 | 237074
13 | 52:41:00 | 02:33:00 | 237075 | 248549
14 | 55:14:00 | 03:11:00 | 248550 | 262874
Track 01
Filename : /Volumes/Data Storage/Rips/01-01 - The Mystery Disease That Haunts My Town.flac
/Volumes/Data Storage/Rips/01-01 - The Mystery Disease That Haunts My Town.mp3
Pre-gap length : 00:02:00
CRC32 hash (test run) : 65E6BC8E
CRC32 hash : 65E6BC8E
CRC32 hash (skip zero) : C17C4F86
AccurateRip signature : 2F6B0A5A
->Track not present in AccurateRip database.
Statistics
Read error : 0
Skipped (treated as error) : 0
Edge jitter error (maybe fixed) : 0
Atom jitter error (maybe fixed) : 0
Drift error (maybe fixed) : 0
Dropped bytes error (maybe fixed) : 0
Duplicated bytes error (maybe fixed) : 0
Track 02
Filename : /Volumes/Data Storage/Rips/01-02 - Epenthesis.flac
/Volumes/Data Storage/Rips/01-02 - Epenthesis.mp3
CRC32 hash (test run) : BA6BA498
CRC32 hash : BA6BA498
CRC32 hash (skip zero) : 3CABF28D
AccurateRip signature : 82692FCC
->Track not present in AccurateRip database.
Statistics
Read error : 0
Skipped (treated as error) : 0
Edge jitter error (maybe fixed) : 0
Atom jitter error (maybe fixed) : 0
Drift error (maybe fixed) : 0
Dropped bytes error (maybe fixed) : 0
Duplicated bytes error (maybe fixed) : 0
Track 03
Filename : /Volumes/Data Storage/Rips/01-03 - Four Ears.flac
/Volumes/Data Storage/Rips/01-03 - Four Ears.mp3
CRC32 hash (test run) : 22B3C5DC
CRC32 hash : 22B3C5DC
CRC32 hash (skip zero) : B6FC2DB5
AccurateRip signature : DA078968
->Track not present in AccurateRip database.
Statistics
Read error : 0
Skipped (treated as error) : 0
Edge jitter error (maybe fixed) : 0
Atom jitter error (maybe fixed) : 0
Drift error (maybe fixed) : 0
Dropped bytes error (maybe fixed) : 0
Duplicated bytes error (maybe fixed) : 0
Track 04
Filename : /Volumes/Data Storage/Rips/01-04 - Revere.flac
/Volumes/Data Storage/Rips/01-04 - Revere.mp3
CRC32 hash (test run) : E1338C04
CRC32 hash : E1338C04
CRC32 hash (skip zero) : 2A68D3C1
AccurateRip signature : 804DDB40
->Track not present in AccurateRip database.
Statistics
Read error : 0
Skipped (treated as error) : 0
Edge jitter error (maybe fixed) : 1
Atom jitter error (maybe fixed) : 1
Drift error (maybe fixed) : 0
Dropped bytes error (maybe fixed) : 0
Duplicated bytes error (maybe fixed) : 0
Track 05
Filename : /Volumes/Data Storage/Rips/01-05 - Fred.flac
/Volumes/Data Storage/Rips/01-05 - Fred.mp3
CRC32 hash (test run) : 3F0D3F6D
CRC32 hash : 3F0D3F6D
CRC32 hash (skip zero) : 1D1109B0
AccurateRip signature : 5C73D3AA
->Track not present in AccurateRip database.
Statistics
Read error : 0
Skipped (treated as error) : 0
Edge jitter error (maybe fixed) : 0
Atom jitter error (maybe fixed) : 0
Drift error (maybe fixed) : 0
Dropped bytes error (maybe fixed) : 0
Duplicated bytes error (maybe fixed) : 0
Track 06
Filename : /Volumes/Data Storage/Rips/01-06 - Julia.flac
/Volumes/Data Storage/Rips/01-06 - Julia.mp3
CRC32 hash (test run) : 0BE836F7
CRC32 hash : 0BE836F7
CRC32 hash (skip zero) : 53B921E1
AccurateRip signature : 7E41C5DE
->Track not present in AccurateRip database.
Statistics
Read error : 0
Skipped (treated as error) : 0
Edge jitter error (maybe fixed) : 0
Atom jitter error (maybe fixed) : 0
Drift error (maybe fixed) : 0
Dropped bytes error (maybe fixed) : 0
Duplicated bytes error (maybe fixed) : 0
Track 07
Filename : /Volumes/Data Storage/Rips/01-07 - No. Eleven.flac
/Volumes/Data Storage/Rips/01-07 - No. Eleven.mp3
CRC32 hash (test run) : 2001B452
CRC32 hash : 2001B452
CRC32 hash (skip zero) : 7A775DB0
AccurateRip signature : C821ECC7
->Track not present in AccurateRip database.
Statistics
Read error : 0
Skipped (treated as error) : 0
Edge jitter error (maybe fixed) : 0
Atom jitter error (maybe fixed) : 0
Drift error (maybe fixed) : 0
Dropped bytes error (maybe fixed) : 0
Duplicated bytes error (maybe fixed) : 0
Track 08
Filename : /Volumes/Data Storage/Rips/01-08 - HVAC.flac
/Volumes/Data Storage/Rips/01-08 - HVAC.mp3
CRC32 hash (test run) : 89B8F65B
CRC32 hash : 89B8F65B
CRC32 hash (skip zero) : 5F237877
AccurateRip signature : D781C0F7
->Track not present in AccurateRip database.
Statistics
Read error : 0
Skipped (treated as error) : 0
Edge jitter error (maybe fixed) : 0
Atom jitter error (maybe fixed) : 0
Drift error (maybe fixed) : 0
Dropped bytes error (maybe fixed) : 0
Duplicated bytes error (maybe fixed) : 0
Track 09
Filename : /Volumes/Data Storage/Rips/01-09 - Sword!.flac
/Volumes/Data Storage/Rips/01-09 - Sword!.mp3
CRC32 hash (test run) : 1F06D0B9
CRC32 hash : 1F06D0B9
CRC32 hash (skip zero) : 525ADCEF
AccurateRip signature : 6CBE059D
->Track not present in AccurateRip database.
Statistics
Read error : 0
Skipped (treated as error) : 0
Edge jitter error (maybe fixed) : 0
Atom jitter error (maybe fixed) : 0
Drift error (maybe fixed) : 0
Dropped bytes error (maybe fixed) : 0
Duplicated bytes error (maybe fixed) : 0
Track 10
Filename : /Volumes/Data Storage/Rips/01-10 - Metal Gloves.flac
/Volumes/Data Storage/Rips/01-10 - Metal Gloves.mp3
CRC32 hash (test run) : 6123919B
CRC32 hash : 6123919B
CRC32 hash (skip zero) : CCAF8091
AccurateRip signature : E5FC57A2
->Track not present in AccurateRip database.
Statistics
Read error : 0
Skipped (treated as error) : 0
Edge jitter error (maybe fixed) : 0
Atom jitter error (maybe fixed) : 0
Drift error (maybe fixed) : 0
Dropped bytes error (maybe fixed) : 0
Duplicated bytes error (maybe fixed) : 0
Track 11
Filename : /Volumes/Data Storage/Rips/01-11 - Paper Gloves.flac
/Volumes/Data Storage/Rips/01-11 - Paper Gloves.mp3
CRC32 hash (test run) : C19ACE06
CRC32 hash : C19ACE06
CRC32 hash (skip zero) : AE4C8121
AccurateRip signature : 8B825657
->Track not present in AccurateRip database.
Statistics
Read error : 0
Skipped (treated as error) : 0
Edge jitter error (maybe fixed) : 1
Atom jitter error (maybe fixed) : 0
Drift error (maybe fixed) : 0
Dropped bytes error (maybe fixed) : 1
Duplicated bytes error (maybe fixed) : 1
Track 12
Filename : /Volumes/Data Storage/Rips/01-12 - Velvet Gloves.flac
/Volumes/Data Storage/Rips/01-12 - Velvet Gloves.mp3
CRC32 hash (test run) : 6F923721
CRC32 hash : 6F923721
CRC32 hash (skip zero) : 0482B326
AccurateRip signature : DB8A43D4
->Track not present in AccurateRip database.
Statistics
Read error : 0
Skipped (treated as error) : 0
Edge jitter error (maybe fixed) : 0
Atom jitter error (maybe fixed) : 0
Drift error (maybe fixed) : 0
Dropped bytes error (maybe fixed) : 0
Duplicated bytes error (maybe fixed) : 0
Track 13
Filename : /Volumes/Data Storage/Rips/01-13 - Presque Isle.flac
/Volumes/Data Storage/Rips/01-13 - Presque Isle.mp3
CRC32 hash (test run) : 7371C4E9
CRC32 hash : 7371C4E9
CRC32 hash (skip zero) : 9554D541
AccurateRip signature : E4C979C7
->Track not present in AccurateRip database.
Statistics
Read error : 0
Skipped (treated as error) : 0
Edge jitter error (maybe fixed) : 0
Atom jitter error (maybe fixed) : 0
Drift error (maybe fixed) : 0
Dropped bytes error (maybe fixed) : 0
Duplicated bytes error (maybe fixed) : 0
Track 14
Filename : /Volumes/Data Storage/Rips/01-14 - Honorable Mention.flac
/Volumes/Data Storage/Rips/01-14 - Honorable Mention.mp3
CRC32 hash (test run) : 8BC0CF28
CRC32 hash : 8BC0CF28
CRC32 hash (skip zero) : 59451426
AccurateRip signature : 89AEB3E8
->Track not present in AccurateRip database.
Statistics
Read error : 0
Skipped (treated as error) : 0
Edge jitter error (maybe fixed) : 0
Atom jitter error (maybe fixed) : 0
Drift error (maybe fixed) : 0
Dropped bytes error (maybe fixed) : 0
Duplicated bytes error (maybe fixed) : 0
No errors occurred
End of status report
 
2
X Lossless Decoder version 20100511 (119.2)
XLD extraction logfile from 2010-05-12 14:20:58 -0700
Nmperign/Jason Lescalleet / Love Me Two Times (Disc 2)
Used drive : MATSHITA DVD-R UJ-857D (revision KCV9)
Use cdparanoia mode : YES (CDParanoia III 10.2 engine)
Disable audio cache : OK for the drive with cache less than 2750KB
Make use of C2 pointers : NO
Read offset correction : 102
Max retry count : 100
TOC of the extracted CD
Track | Start | Length | Start sector | End sector
---------------------------------------------------------
1 | 00:00:00 | 04:20:00 | 0 | 19499
2 | 04:20:00 | 23:23:00 | 19500 | 124724
3 | 27:43:00 | 06:00:00 | 124725 | 151724
4 | 33:43:00 | 03:11:00 | 151725 | 166049
5 | 36:54:00 | 04:11:00 | 166050 | 184874
6 | 41:05:00 | 00:50:00 | 184875 | 188624
7 | 41:55:00 | 03:11:00 | 188625 | 202949
8 | 45:06:00 | 08:09:00 | 202950 | 239624
9 | 53:15:00 | 16:47:00 | 239625 | 315149
Track 01
Filename : /Volumes/Data Storage/Rips/02-01 - The Prodigal Bastard.flac
/Volumes/Data Storage/Rips/02-01 - The Prodigal Bastard.mp3
Pre-gap length : 00:02:00
CRC32 hash (test run) : AFA61CB3
CRC32 hash : AFA61CB3
CRC32 hash (skip zero) : 6E14538C
AccurateRip signature : F4445EE0
->Track not present in AccurateRip database.
Statistics
Read error : 0
Skipped (treated as error) : 0
Edge jitter error (maybe fixed) : 0
Atom jitter error (maybe fixed) : 0
Drift error (maybe fixed) : 0
Dropped bytes error (maybe fixed) : 0
Duplicated bytes error (maybe fixed) : 0
Track 02
Filename : /Volumes/Data Storage/Rips/02-02 - White Wall.flac
/Volumes/Data Storage/Rips/02-02 - White Wall.mp3
CRC32 hash (test run) : EC7FB2EE
CRC32 hash : EC7FB2EE
CRC32 hash (skip zero) : 6349C802
AccurateRip signature : D30C1C81
->Track not present in AccurateRip database.
Statistics
Read error : 0
Skipped (treated as error) : 0
Edge jitter error (maybe fixed) : 0
Atom jitter error (maybe fixed) : 0
Drift error (maybe fixed) : 0
Dropped bytes error (maybe fixed) : 0
Duplicated bytes error (maybe fixed) : 0
Track 03
Filename : /Volumes/Data Storage/Rips/02-03 - I Remember.flac
/Volumes/Data Storage/Rips/02-03 - I Remember.mp3
CRC32 hash (test run) : 38882C8E
CRC32 hash : 38882C8E
CRC32 hash (skip zero) : DA31A58D
AccurateRip signature : C33ABCF6
->Track not present in AccurateRip database.
Statistics
Read error : 0
Skipped (treated as error) : 0
Edge jitter error (maybe fixed) : 0
Atom jitter error (maybe fixed) : 0
Drift error (maybe fixed) : 0
Dropped bytes error (maybe fixed) : 0
Duplicated bytes error (maybe fixed) : 0
Track 04
Filename : /Volumes/Data Storage/Rips/02-04 - No. Twenty-Seven.flac
/Volumes/Data Storage/Rips/02-04 - No. Twenty-Seven.mp3
CRC32 hash (test run) : 5CF42028
CRC32 hash : 5CF42028
CRC32 hash (skip zero) : 9C6B66BA
AccurateRip signature : E038188E
->Track not present in AccurateRip database.
Statistics
Read error : 0
Skipped (treated as error) : 0
Edge jitter error (maybe fixed) : 1
Atom jitter error (maybe fixed) : 0
Drift error (maybe fixed) : 0
Dropped bytes error (maybe fixed) : 0
Duplicated bytes error (maybe fixed) : 1
Track 05
Filename : /Volumes/Data Storage/Rips/02-05 - Bottle at Park.flac
/Volumes/Data Storage/Rips/02-05 - Bottle at Park.mp3
CRC32 hash (test run) : 3F23725C
CRC32 hash : 3F23725C
CRC32 hash (skip zero) : 4F49EE58
AccurateRip signature : 531DC985
->Track not present in AccurateRip database.
Statistics
Read error : 0
Skipped (treated as error) : 0
Edge jitter error (maybe fixed) : 0
Atom jitter error (maybe fixed) : 0
Drift error (maybe fixed) : 0
Dropped bytes error (maybe fixed) : 0
Duplicated bytes error (maybe fixed) : 0
Track 06
Filename : /Volumes/Data Storage/Rips/02-06 - Imaginary Friends.flac
/Volumes/Data Storage/Rips/02-06 - Imaginary Friends.mp3
CRC32 hash (test run) : 8F177B83
CRC32 hash : 8F177B83
CRC32 hash (skip zero) : 67365612
AccurateRip signature : 464F1543
->Track not present in AccurateRip database.
Statistics
Read error : 0
Skipped (treated as error) : 0
Edge jitter error (maybe fixed) : 2
Atom jitter error (maybe fixed) : 1
Drift error (maybe fixed) : 0
Dropped bytes error (maybe fixed) : 1
Duplicated bytes error (maybe fixed) : 1
Track 07
Filename : /Volumes/Data Storage/Rips/02-07 - .flac
/Volumes/Data Storage/Rips/02-07 - .mp3
CRC32 hash (test run) : EC855F3E
CRC32 hash : EC855F3E
CRC32 hash (skip zero) : 4A46E67A
AccurateRip signature : 5DFC7B53
->Track not present in AccurateRip database.
Statistics
Read error : 0
Skipped (treated as error) : 0
Edge jitter error (maybe fixed) : 0
Atom jitter error (maybe fixed) : 0
Drift error (maybe fixed) : 0
Dropped bytes error (maybe fixed) : 0
Duplicated bytes error (maybe fixed) : 0
Track 08
Filename : /Volumes/Data Storage/Rips/02-08 - This is Ruined.flac
/Volumes/Data Storage/Rips/02-08 - This is Ruined.mp3
CRC32 hash (test run) : 860446DD
CRC32 hash : 860446DD
CRC32 hash (skip zero) : C710EA33
AccurateRip signature : F38D1E72
->Track not present in AccurateRip database.
Statistics
Read error : 0
Skipped (treated as error) : 0
Edge jitter error (maybe fixed) : 0
Atom jitter error (maybe fixed) : 0
Drift error (maybe fixed) : 0
Dropped bytes error (maybe fixed) : 0
Duplicated bytes error (maybe fixed) : 0
Track 09
Filename : /Volumes/Data Storage/Rips/02-09 - Burnt Offerings.flac
/Volumes/Data Storage/Rips/02-09 - Burnt Offerings.mp3
CRC32 hash (test run) : 100033B6
CRC32 hash : 100033B6
CRC32 hash (skip zero) : DA66FF87
AccurateRip signature : C156D8F8
->Track not present in AccurateRip database.
Statistics
Read error : 0
Skipped (treated as error) : 0
Edge jitter error (maybe fixed) : 0
Atom jitter error (maybe fixed) : 0
Drift error (maybe fixed) : 0
Dropped bytes error (maybe fixed) : 0
Duplicated bytes error (maybe fixed) : 0
No errors occurred
End of status report
 
Содержание индексной карты (.CUE)
 
1
TITLE "Love Me Two Times (Disc 1)"
PERFORMER "Nmperign/Jason Lescalleet"
REM GENRE "EAI"
REM DATE 2006
FILE "01-01 - The Mystery Disease That Haunts My Town.wav" WAVE
TRACK 01 AUDIO
TITLE "The Mystery Disease That Haunts My Town"
INDEX 01 00:00:00
FILE "01-02 - Epenthesis.wav" WAVE
TRACK 02 AUDIO
TITLE "Epenthesis"
INDEX 01 00:00:00
FILE "01-03 - Four Ears.wav" WAVE
TRACK 03 AUDIO
TITLE "Four Ears"
INDEX 01 00:00:00
FILE "01-04 - Revere.wav" WAVE
TRACK 04 AUDIO
TITLE "Revere"
INDEX 01 00:00:00
FILE "01-05 - Fred.wav" WAVE
TRACK 05 AUDIO
TITLE "Fred"
INDEX 01 00:00:00
FILE "01-06 - Julia.wav" WAVE
TRACK 06 AUDIO
TITLE "Julia"
INDEX 01 00:00:00
FILE "01-07 - No. Eleven.wav" WAVE
TRACK 07 AUDIO
TITLE "No. Eleven"
INDEX 01 00:00:00
FILE "01-08 - HVAC.wav" WAVE
TRACK 08 AUDIO
TITLE "HVAC"
INDEX 01 00:00:00
FILE "01-09 - Sword!.wav" WAVE
TRACK 09 AUDIO
TITLE "Sword!"
INDEX 01 00:00:00
FILE "01-10 - Metal Gloves.wav" WAVE
TRACK 10 AUDIO
TITLE "Metal Gloves"
INDEX 01 00:00:00
FILE "01-11 - Paper Gloves.wav" WAVE
TRACK 11 AUDIO
TITLE "Paper Gloves"
INDEX 01 00:00:00
FILE "01-12 - Velvet Gloves.wav" WAVE
TRACK 12 AUDIO
TITLE "Velvet Gloves"
INDEX 01 00:00:00
FILE "01-13 - Presque Isle.wav" WAVE
TRACK 13 AUDIO
TITLE "Presque Isle"
INDEX 01 00:00:00
FILE "01-14 - Honorable Mention.wav" WAVE
TRACK 14 AUDIO
TITLE "Honorable Mention"
INDEX 01 00:00:00
 
2
TITLE "Love Me Two Times (Disc 2)"
PERFORMER "Nmperign/Jason Lescalleet"
REM GENRE "EAI"
REM DATE 2006
FILE "02-01 - The Prodigal Bastard.wav" WAVE
TRACK 01 AUDIO
TITLE "The Prodigal Bastard"
INDEX 01 00:00:00
FILE "02-02 - White Wall.wav" WAVE
TRACK 02 AUDIO
TITLE "White Wall"
INDEX 01 00:00:00
FILE "02-03 - I Remember.wav" WAVE
TRACK 03 AUDIO
TITLE "I Remember"
INDEX 01 00:00:00
FILE "02-04 - No. Twenty-Seven.wav" WAVE
TRACK 04 AUDIO
TITLE "No. Twenty-Seven"
INDEX 01 00:00:00
FILE "02-05 - Bottle at Park.wav" WAVE
TRACK 05 AUDIO
TITLE "Bottle at Park"
INDEX 01 00:00:00
FILE "02-06 - Imaginary Friends.wav" WAVE
TRACK 06 AUDIO
TITLE "Imaginary Friends"
INDEX 01 00:00:00
FILE "02-07 - .wav" WAVE
TRACK 07 AUDIO
TITLE " "
INDEX 01 00:00:00
FILE "02-08 - This is Ruined.wav" WAVE
TRACK 08 AUDIO
TITLE "This is Ruined"
INDEX 01 00:00:00
FILE "02-09 - Burnt Offerings.wav" WAVE
TRACK 09 AUDIO
TITLE "Burnt Offerings"
INDEX 01 00:00:00
 
Лог проверки качества
AUDIOCHECKER v2.0 beta (build 457) - by Dester - opdester@freemail.hu
~~~~~~~~~~~~~~~~~~~~~~~~~~~~~~~~~~
-=== DO NOT EDIT THIS FILE! ===-
Path: ...\Nmperign_Jason Lescalleet - Love Me Two Times (FLAC, 2006)
01 -=- 01-01 - The Mystery Disease That Haunts My Town.flac -=- MPEG (100%)
02 -=- 01-02 - Epenthesis.flac -=- CDDA (100%)
03 -=- 01-03 - Four Ears.flac -=- CDDA (87%)
04 -=- 01-04 - Revere.flac -=- CDDA (76%)
05 -=- 01-05 - Fred.flac -=- CDDA (100%)
06 -=- 01-06 - Julia.flac -=- CDDA (100%)
07 -=- 01-07 - No. Eleven.flac -=- CDDA (100%)
08 -=- 01-08 - HVAC.flac -=- CDDA (100%)
09 -=- 01-09 - Sword!.flac -=- CDDA (86%)
10 -=- 01-10 - Metal Gloves.flac -=- MPEG (93%)
11 -=- 01-11 - Paper Gloves.flac -=- CDDA (100%)
12 -=- 01-12 - Velvet Gloves.flac -=- CDDA (100%)
13 -=- 01-13 - Presque Isle.flac -=- CDDA (100%)
14 -=- 01-14 - Honorable Mention.flac -=- CDDA (100%)
15 -=- 02-01 - The Prodigal Bastard.flac -=- CDDA (100%)
16 -=- 02-02 - White Wall.flac -=- MPEG (90%)
17 -=- 02-03 - I Remember.flac -=- MPEG (100%)
18 -=- 02-04 - No. Twenty-Seven.flac -=- MPEG (92%)
19 -=- 02-05 - Bottle at Park.flac -=- CDDA (100%)
20 -=- 02-06 - Imaginary Friends.flac -=- CDDA (43%)
21 -=- 02-07 - .flac -=- CDDA (99%)
22 -=- 02-08 - This is Ruined.flac -=- CDDA (100%)
23 -=- 02-09 - Burnt Offerings.flac -=- MPEG (80%)
Summary 71,13% CDDA
226842388
 
Скриншот спектра частот
 
Состав
Jason Lescalleet tapeloops
nmperign:
Bhob Rainey – soprano saxophone,
Greg Kelley – trumpet
Any questions -> support@pro-jazz.com. По всем вопросам пишите -> support@pro-jazz.com
11:47
185
Нет комментариев. Ваш будет первым!