Вы используете незарегистрированную версию компонента "Вкладки"!

Поиск

(Free Improvisation, EAI, lowercase) +minus (Bernhard Gunter, Mark Wastell, Graham Halliwell) - A Rainy Koran Verse [UK Live] - 2004, FLAC (tracks), lossless

(Free Improvisation, EAI, lowercase) +minus (Bernhard Gunter, Mark Wastell, Graham Halliwell) - A Rainy Koran Verse [UK Live] - 2004, FLAC (tracks), lossless
Треклист:
+minus / A Rainy Koran Verse [UK Live]
Жанр: Free Improvisation, EAI, lowercase
Страна-производитель диска: Германия
Год издания диска: 2004
Издатель (лейбл): Trente Oiseaux
Номер по каталогу: TOC 043
Страна: Германия, Великобритания
Аудиокодек: FLAC (*.flac)
Тип рипа: tracks
Битрейт аудио: lossless
Продолжительность: 1:10:15
Источник (релизер): вот.сиди (tamale)
Наличие сканов в содержимом раздачи: нет
Треклист:
1 Impossible Grey36:03
2 Untitled II/9218:04
3 Untitled II/9216:07
recorded live in in Norwich, Manchester, and London
 
Лог создания рипа
X Lossless Decoder version 20111214 (138.1)
XLD extraction logfile from 2011-12-19 22:51:22 +0000
+Minus / +Minus
Used drive : MATSHITA DVD-R UJ-898 (revision HE13)
Ripper mode : XLD Secure Ripper
Disable audio cache : OK for the drive with a cache less than 1375KiB
Make use of C2 pointers : NO
Read offset correction : 102
Max retry count : 40
Gap status : Analyzed, Appended
TOC of the extracted CD
Track | Start | Length | Start sector | End sector
---------------------------------------------------------
1 | 00:00:00 | 36:03:29 | 0 | 162253
2 | 36:03:29 | 18:04:26 | 162254 | 243579
3 | 54:07:55 | 16:07:36 | 243580 | 316140
4 | 72:47:16 | 00:06:02 | 327541 | 327992
AccurateRip Summary
Disc not found in AccurateRip DB.
All Tracks
Album gain : 7.23 dB
Peak : 0.988556
Statistics
Read error : 0
Jitter error (maybe fixed) : 0
Retry sector count : 0
Damaged sector count : 0
Track 01
Filename : /XLD/+Minus - A Rainy Koran Verse [UK Live]/01 +Minus - Impossible Grey.flac
Pre-gap length : 00:02:00
Track gain : 8.26 dB
Peak : 0.820221
CRC32 hash (test run) : 26A1623F
CRC32 hash : 26A1623F
CRC32 hash (skip zero) : E730D155
AccurateRip signature : 4F9339E0
->Track not present in AccurateRip database.
Statistics
Read error : 0
Jitter error (maybe fixed) : 0
Retry sector count : 0
Damaged sector count : 0
Track 02
Filename : /XLD/+Minus - A Rainy Koran Verse [UK Live]/02 +Minus - Untitled Ii/92a.flac
Pre-gap length : 00:00:05
Track gain : 5.51 dB
Peak : 0.595520
CRC32 hash (test run) : 1A8FD060
CRC32 hash : 1A8FD060
CRC32 hash (skip zero) : BFEE5775
AccurateRip signature : 6E155BB2
->Track not present in AccurateRip database.
Statistics
Read error : 0
Jitter error (maybe fixed) : 0
Retry sector count : 0
Damaged sector count : 0
Track 03
Filename : /XLD/+Minus - A Rainy Koran Verse [UK Live]/03 +Minus - Untitled Ii/92b.flac
Pre-gap length : 00:00:05
Track gain : 11.03 dB
Peak : 0.988556
CRC32 hash (test run) : 0CAD7614
CRC32 hash : 0CAD7614
CRC32 hash (skip zero) : DDB3A306
AccurateRip signature : E6DC16F8
->Track not present in AccurateRip database.
Statistics
Read error : 0
Jitter error (maybe fixed) : 0
Retry sector count : 0
Damaged sector count : 0
No errors occurred
End of status report
 
Лог проверки качества
AUDIOCHECKER v2.0 beta (build 457) - by Dester - opdester@freemail.hu
~~~~~~~~~~~~~~~~~~~~~~~~~~~~~~~~~~
-=== DO NOT EDIT THIS FILE! ===-
Path: ...\+minus -2004 - a rainy koran verse [uk live]
1 -=- 01 +Minus - Impossible Grey.flac -=- CDDA (100%)
2 -=- 02 +Minus - Untitled Ii/92a.flac -=- MPEG (93%)
3 -=- 03 +Minus - Untitled Ii/92b.flac -=- CDDA (100%)
Summary 69,00% CDDA
103765588
 
Скриншот спектра частот
 
Состав

Bernhard Günter electric cellotar, basis tracks
Mark Wastell tam tam, prayer bowls, snare drum, bell
Graham Halliwell alto saxophone feedback
Any questions -> support@pro-jazz.com. По всем вопросам пишите -> support@pro-jazz.com
19:43
221
Нет комментариев. Ваш будет первым!