Вы используете незарегистрированную версию компонента "Вкладки"!

Поиск

(Free Improvisation) Derek Bailey - Takes Fakes & Dead She Dances - 1997, FLAC (tracks+.cue), lossless

(Free Improvisation) Derek Bailey - Takes Fakes & Dead She Dances - 1997, FLAC (tracks+.cue), lossless
Треклист:
Derek Bailey / Takes Fakes & Dead She Dances
Жанр: Free Improvisation
Страна-производитель диска: Великобритания
Год издания диска: 1997
Издатель (лейбл): Incus
Номер по каталогу: Incus CD31
Страна: Великобритания
Аудиокодек: FLAC (*.flac)
Тип рипа: tracks+.cue
Битрейт аудио: lossless
Продолжительность: 41:27
Источник (релизер): вот.сиди (Ludovico)
Наличие сканов в содержимом раздачи: нет
Треклист:
1. Notts (13.11)
2. tba (02.10)
3. One damned thing... (03.12)
4. Opening title (01.57)
5. ...after another (02.32)
6. It goes in, out, round, about (03.13)
7. This title and the following title (02.09)
8. Should be reversed (03.55)
9. Rabbit as seen by dog (01.37)
10. Dead she dances (07.32)
1, 10 recorded at a solo concert given at Angel Row Gallery, Nottingham on 24 September 1997; Dead she dances is from Distant points, a book of poems by Peter Riley. 2-9 recorded in London in May 1997 and produced by Steve Beresford.
 
Лог создания рипа
Exact Audio Copy V0.99 prebeta 3 from 28. July 2007
EAC extraction logfile from 17. September 2011, 14:10
Derek Bailey / Takes fakes & dead she dances
Used drive : TSSTcorpCDDVDW SE-S084F Adapter: 4 ID: 0
Read mode : Secure
Utilize accurate stream : Yes
Defeat audio cache : Yes
Make use of C2 pointers : No
Read offset correction : 6
Overread into Lead-In and Lead-Out : No
Fill up missing offset samples with silence : Yes
Delete leading and trailing silent blocks : No
Null samples used in CRC calculations : Yes
Used interface : Installed external ASPI interface
Gap handling : Appended to previous track
Used output format : User Defined Encoder
Selected bitrate : 1024 kBit/s
Quality : High
Add ID3 tag : Yes
Command line compressor : C:\Program Files\Exact Audio Copy\FLAC\FLAC.EXE
Additional command line options : -6 -V -T "ARTIST=%a" -T "TITLE=%t" -T "ALBUM=%g" -T "DATE=%y" -T "TRACKNUMBER=%n" -T "GENRE=%m" -T "COMMENT=%e" %s -o %d
TOC of the extracted CD
Track | Start | Length | Start sector | End sector
---------------------------------------------------------
1 | 0:00.00 | 13:11.48 | 0 | 59372
2 | 13:11.48 | 2:09.23 | 59373 | 69070
3 | 15:20.71 | 3:12.56 | 69071 | 83526
4 | 18:33.52 | 1:58.71 | 83527 | 92447
5 | 20:32.48 | 2:31.26 | 92448 | 103798
6 | 23:03.74 | 3:11.66 | 103799 | 118189
7 | 26:15.65 | 2:10.09 | 118190 | 127948
8 | 28:25.74 | 3:54.16 | 127949 | 145514
9 | 32:20.15 | 1:28.55 | 145515 | 152169
10 | 33:48.70 | 7:38.10 | 152170 | 186529
Track 1
Filename Z:\Musique Flac\Derek Bailey - Takes fakes & dead she dances\01 - Notts.wav
Pre-gap length 0:00:02.00
Peak level 97.7 %
Track quality 99.9 %
Test CRC 562497B1
Copy CRC 562497B1
Track not present in AccurateRip database
Copy OK
Track 2
Filename Z:\Musique Flac\Derek Bailey - Takes fakes & dead she dances\02 - tba.wav
Pre-gap length 0:00:03.44
Peak level 97.7 %
Track quality 100.0 %
Test CRC C9B0AEDE
Copy CRC C9B0AEDE
Track not present in AccurateRip database
Copy OK
Track 3
Filename Z:\Musique Flac\Derek Bailey - Takes fakes & dead she dances\03 - One damned thing....wav
Pre-gap length 0:00:03.44
Peak level 97.7 %
Track quality 100.0 %
Test CRC C1C32798
Copy CRC C1C32798
Track not present in AccurateRip database
Copy OK
Track 4
Filename Z:\Musique Flac\Derek Bailey - Takes fakes & dead she dances\04 - Opening title.wav
Pre-gap length 0:00:03.45
Peak level 97.5 %
Track quality 100.0 %
Test CRC AFB646D3
Copy CRC AFB646D3
Track not present in AccurateRip database
Copy OK
Track 5
Filename Z:\Musique Flac\Derek Bailey - Takes fakes & dead she dances\05 - ...after another.wav
Pre-gap length 0:00:03.44
Peak level 97.7 %
Track quality 100.0 %
Test CRC F68D495E
Copy CRC F68D495E
Track not present in AccurateRip database
Copy OK
Track 6
Filename Z:\Musique Flac\Derek Bailey - Takes fakes & dead she dances\06 - It goes in, out, round, about.wav
Pre-gap length 0:00:03.44
Peak level 97.7 %
Track quality 100.0 %
Test CRC FB463504
Copy CRC FB463504
Track not present in AccurateRip database
Copy OK
Track 7
Filename Z:\Musique Flac\Derek Bailey - Takes fakes & dead she dances\07 - This title and the following title.wav
Pre-gap length 0:00:03.44
Peak level 97.7 %
Track quality 100.0 %
Test CRC 210EF661
Copy CRC 210EF661
Track not present in AccurateRip database
Copy OK
Track 8
Filename Z:\Musique Flac\Derek Bailey - Takes fakes & dead she dances\08 - Should be reversed.wav
Pre-gap length 0:00:03.44
Peak level 97.7 %
Track quality 100.0 %
Test CRC 870AD4DE
Copy CRC 870AD4DE
Track not present in AccurateRip database
Copy OK
Track 9
Filename Z:\Musique Flac\Derek Bailey - Takes fakes & dead she dances\09 - Rabbit as seen by dog.wav
Pre-gap length 0:00:03.44
Peak level 97.7 %
Track quality 100.0 %
Test CRC 0251844D
Copy CRC 0251844D
Track not present in AccurateRip database
Copy OK
Track 10
Filename Z:\Musique Flac\Derek Bailey - Takes fakes & dead she dances\10 - Dead she dances.wav
Pre-gap length 0:00:03.44
Peak level 97.7 %
Track quality 100.0 %
Test CRC AFC1182B
Copy CRC AFC1182B
Track not present in AccurateRip database
Copy OK
None of the tracks are present in the AccurateRip database
No errors occurred
End of status report
 
Содержание индексной карты (.CUE)
REM GENRE Avantgarde
REM DISCID 7D09B70A
REM COMMENT "ExactAudioCopy v0.99pb3"
PERFORMER "Derek Bailey"
TITLE "Takes fakes & dead she dances"
FILE "01 - Notts.wav" WAVE
TRACK 01 AUDIO
TITLE "Notts"
PERFORMER "Derek Bailey"
INDEX 01 00:00:00
TRACK 02 AUDIO
TITLE "tba"
PERFORMER "Derek Bailey"
INDEX 00 13:08:04
FILE "02 - tba.wav" WAVE
INDEX 01 00:00:00
TRACK 03 AUDIO
TITLE "One damned thing..."
PERFORMER "Derek Bailey"
INDEX 00 02:05:54
FILE "03 - One damned thing....wav" WAVE
INDEX 01 00:00:00
TRACK 04 AUDIO
TITLE "Opening title"
PERFORMER "Derek Bailey"
INDEX 00 03:09:11
FILE "04 - Opening title.wav" WAVE
INDEX 01 00:00:00
TRACK 05 AUDIO
TITLE "...after another"
PERFORMER "Derek Bailey"
INDEX 00 01:55:27
FILE "05 - ...after another.wav" WAVE
INDEX 01 00:00:00
TRACK 06 AUDIO
TITLE "It goes in, out, round, about"
PERFORMER "Derek Bailey"
INDEX 00 02:27:57
FILE "06 - It goes in, out, round, about.wav" WAVE
INDEX 01 00:00:00
TRACK 07 AUDIO
TITLE "This title and the following title"
PERFORMER "Derek Bailey"
INDEX 00 03:08:22
FILE "07 - This title and the following title.wav" WAVE
INDEX 01 00:00:00
TRACK 08 AUDIO
TITLE "Should be reversed"
PERFORMER "Derek Bailey"
INDEX 00 02:06:40
FILE "08 - Should be reversed.wav" WAVE
INDEX 01 00:00:00
TRACK 09 AUDIO
TITLE "Rabbit as seen by dog"
PERFORMER "Derek Bailey"
INDEX 00 03:50:47
FILE "09 - Rabbit as seen by dog.wav" WAVE
INDEX 01 00:00:00
TRACK 10 AUDIO
TITLE "Dead she dances"
PERFORMER "Derek Bailey"
INDEX 00 01:25:11
FILE "10 - Dead she dances.wav" WAVE
INDEX 01 00:00:00
 
Лог проверки качества
AUDIOCHECKER v2.0 beta (build 457) - by Dester - opdester@freemail.hu
~~~~~~~~~~~~~~~~~~~~~~~~~~~~~~~~~~
-=== DO NOT EDIT THIS FILE! ===-
Path: ...\Derek Bailey - Takes fakes & dead she dances
01 -=- 01 - Notts.flac -=- ERROR
02 -=- 02 - tba.flac -=- CDDA (100%)
03 -=- 03 - One damned thing....flac -=- CDDA (100%)
04 -=- 04 - Opening title.flac -=- CDDA (100%)
05 -=- 05 - ...after another.flac -=- CDDA (100%)
06 -=- 06 - It goes in, out, round, about.flac -=- CDDA (100%)
07 -=- 07 - This title and the following title.flac -=- CDDA (100%)
08 -=- 08 - Should be reversed.flac -=- CDDA (100%)
09 -=- 09 - Rabbit as seen by dog.flac -=- CDDA (92%)
10 -=- 10 - Dead she dances.flac -=- CDDA (43%)
Summary 92,78% CDDA
103861668
 
Скриншот спектра частот
 
Состав
Derek Bailey: acoustic guitar by Henner Hardenberger, Gibson 175 electric guitar (10), recitation (10)
Any questions -> support@pro-jazz.com. По всем вопросам пишите -> support@pro-jazz.com
16:56
201
Нет комментариев. Ваш будет первым!