Вы используете незарегистрированную версию компонента "Вкладки"!

Поиск

(Free Improvisation) Derek Bailey - Lot 74. Solo Improvisations - 2009, FLAC (tracks+.cue), lossless

Треклист:
Derek Bailey - Lot 74. Solo Improvisations
Жанр: Free Improvisation
Год выпуска диска: 2009
Производитель диска: Incus Records (Incus CD04)
Источник: вот.сиди (budwigcream)
Аудио кодек: FLAC
Тип рипа: tracks+.cue
Битрейт аудио: lossless
Продолжительность: 40:56
Трэклист:
A Lot 74 22:00
B1 Together 2:15
B2 Pain In The Chest? 3:00
B3 Planks 4:00
B4 In Joke (Take 2) 4:00
B5 Improvisation 104(b) 6:00
Recorded Spring 1974
Derek Bailey, solo guitar
 
Отчёт XLD
X Lossless Decoder version 20100518 (120.3)
XLD extraction logfile from 2010-05-21 10:00:12 -0400
Derek Bailey / Lot 74
Used drive : MATSHITA DVD-R UJ-868 (revision KB19)
Use cdparanoia mode : YES (CDParanoia III 10.2 engine)
Disable audio cache : OK for the drive with cache less than 2750KB
Make use of C2 pointers : NO
Read offset correction : 102
Max retry count : 100
TOC of the extracted CD
Track | Start | Length | Start sector | End sector
---------------------------------------------------------
1 | 00:00:00 | 22:25:55 | 0 | 100929
2 | 22:25:55 | 02:02:39 | 100930 | 110118
3 | 24:28:19 | 03:02:30 | 110119 | 123798
4 | 27:30:49 | 04:08:49 | 123799 | 142447
5 | 31:39:23 | 03:37:45 | 142448 | 158767
6 | 35:16:68 | 05:39:14 | 158768 | 184206
Track 01
Filename : /Users/cremebudwig/Documents/budwig/01 - Lot 74.flac
Pre-gap length : 00:02:00
CRC32 hash (test run) : DBD41DC8
CRC32 hash : DBD41DC8
CRC32 hash (skip zero) : F2BFE8F9
AccurateRip signature : 44DFA015
->Track not present in AccurateRip database.
Statistics
Read error : 0
Skipped (treated as error) : 0
Edge jitter error (maybe fixed) : 0
Atom jitter error (maybe fixed) : 0
Drift error (maybe fixed) : 0
Dropped bytes error (maybe fixed) : 0
Duplicated bytes error (maybe fixed) : 0
Inconsistency in error sectors : 0
Track 02
Filename : /Users/cremebudwig/Documents/budwig/02 - Together.flac
CRC32 hash (test run) : 86D8DD3C
CRC32 hash : 86D8DD3C
CRC32 hash (skip zero) : 6B8E9E90
AccurateRip signature : 94D70D2A
->Track not present in AccurateRip database.
Statistics
Read error : 0
Skipped (treated as error) : 0
Edge jitter error (maybe fixed) : 0
Atom jitter error (maybe fixed) : 0
Drift error (maybe fixed) : 0
Dropped bytes error (maybe fixed) : 0
Duplicated bytes error (maybe fixed) : 0
Inconsistency in error sectors : 0
Track 03
Filename : /Users/cremebudwig/Documents/budwig/03 - Pain In The Chest.flac
CRC32 hash (test run) : F6CD1CFD
CRC32 hash : F6CD1CFD
CRC32 hash (skip zero) : 1D18C422
AccurateRip signature : A5A22D97
->Track not present in AccurateRip database.
Statistics
Read error : 0
Skipped (treated as error) : 0
Edge jitter error (maybe fixed) : 0
Atom jitter error (maybe fixed) : 0
Drift error (maybe fixed) : 0
Dropped bytes error (maybe fixed) : 0
Duplicated bytes error (maybe fixed) : 0
Inconsistency in error sectors : 0
Track 04
Filename : /Users/cremebudwig/Documents/budwig/04 - Planks.flac
CRC32 hash (test run) : 45777B59
CRC32 hash : 45777B59
CRC32 hash (skip zero) : 62FDE358
AccurateRip signature : 534A3749
->Track not present in AccurateRip database.
Statistics
Read error : 0
Skipped (treated as error) : 0
Edge jitter error (maybe fixed) : 0
Atom jitter error (maybe fixed) : 0
Drift error (maybe fixed) : 0
Dropped bytes error (maybe fixed) : 0
Duplicated bytes error (maybe fixed) : 0
Inconsistency in error sectors : 0
Track 05
Filename : /Users/cremebudwig/Documents/budwig/05 - In Joke (Take 2).flac
CRC32 hash (test run) : 948104AC
CRC32 hash : 948104AC
CRC32 hash (skip zero) : F0B3F079
AccurateRip signature : 8A89B3A4
->Track not present in AccurateRip database.
Statistics
Read error : 0
Skipped (treated as error) : 0
Edge jitter error (maybe fixed) : 0
Atom jitter error (maybe fixed) : 0
Drift error (maybe fixed) : 0
Dropped bytes error (maybe fixed) : 0
Duplicated bytes error (maybe fixed) : 0
Inconsistency in error sectors : 0
Track 06
Filename : /Users/cremebudwig/Documents/budwig/06 - 104b.flac
CRC32 hash (test run) : 56FFD12A
CRC32 hash : 56FFD12A
CRC32 hash (skip zero) : DB3B37D8
AccurateRip signature : 94095A08
->Track not present in AccurateRip database.
Statistics
Read error : 0
Skipped (treated as error) : 0
Edge jitter error (maybe fixed) : 0
Atom jitter error (maybe fixed) : 0
Drift error (maybe fixed) : 0
Dropped bytes error (maybe fixed) : 0
Duplicated bytes error (maybe fixed) : 0
Inconsistency in error sectors : 0
No errors occurred
End of status report
 
Отчёт Audiocheckera
AUDIOCHECKER v2.0 beta (build 457) - by Dester - opdester@freemail.hu
~~~~~~~~~~~~~~~~~~~~~~~~~~~~~~~~~~
-=== DO NOT EDIT THIS FILE! ===-
Path: ...\Lot 74 flac
1 -=- 01 - Lot 74.flac -=- CDDA (100%)
2 -=- 02 - Together.flac -=- CDDA (100%)
3 -=- 03 - Pain In The Chest.flac -=- CDDA (100%)
4 -=- 04 - Planks.flac -=- CDDA (100%)
5 -=- 05 - In Joke (Take 2).flac -=- CDDA (100%)
6 -=- 06 - 104b.flac -=- CDDA (100%)
Summary 100.00% CDDA
214514548
 
cue
TITLE "Lot 74"
PERFORMER "Derek Bailey"
REM GENRE "Jazz"
REM DATE 1974
REM DISCID 42099806
FILE "01 - Lot 74.wav" WAVE
TRACK 01 AUDIO
TITLE "Lot 74"
INDEX 01 00:00:00
FILE "02 - Together.wav" WAVE
TRACK 02 AUDIO
TITLE "Together"
INDEX 01 00:00:00
FILE "03 - Pain In The Chest.wav" WAVE
TRACK 03 AUDIO
TITLE "Pain In The Chest"
INDEX 01 00:00:00
FILE "04 - Planks.wav" WAVE
TRACK 04 AUDIO
TITLE "Planks"
INDEX 01 00:00:00
FILE "05 - In Joke (Take 2).wav" WAVE
TRACK 05 AUDIO
TITLE "In Joke (Take 2)"
INDEX 01 00:00:00
FILE "06 - 104b.wav" WAVE
TRACK 06 AUDIO
TITLE "104b"
INDEX 01 00:00:00
По всем вопросам пишите личное сообщение пользователю M0p94ok.
23:09
217
Нет комментариев. Ваш будет первым!