Вы используете незарегистрированную версию компонента "Вкладки"!

Поиск

(Free Improvisation) Derek Bailey & 灰野敬二 (Keiji Haino) - Songs - 2000, FLAC (tracks+.cue), lossless

(Free Improvisation) Derek Bailey & 灰野敬二 (Keiji Haino) - Songs - 2000, FLAC (tracks+.cue), lossless
Треклист:
Derek Bailey & 灰野敬二 (Keiji Haino) / Songs
Жанр: Free Improvisation
Страна-производитель диска: Великобритания
Год издания диска: 2000
Издатель (лейбл): Incus
Номер по каталогу: CD 40
Страна: Япония
Аудиокодек: FLAC (*.flac)
Тип рипа: tracks+.cue
Битрейт аудио: lossless
Продолжительность: 42:18
Источник (релизер): сеть (fuckdeboere)
Наличие сканов в содержимом раздачи: нет
Треклист:
1. Yume ga ichiban muchi (2.19)
2. 25 No Seimeitai (2.43)
3. Aru Kanashika No Juni (4.41)
4. 2 To Mugen No Torjhiki (0.52)
5. Zen'i No Yokubo (1.14)
6. Boka Ga NeJirekireru To Ai (2.10)
7. Zureteyuku No Ha Watashi, Soretomo Ima (1.57)
8. Ten To Tomo Ni Ishoni Itagaru Shugo (0.54)
9. Egatai Kanashimi O Te Ni Ireta (1.25)
10. Chotto Burusu Ni Aisatsu (1.11)
11. Kotaerarenai Hazu Na No Ni (4.09)
12. Ichi O Tashikamete Kara (4.10)
13. Fukuzatsu To Iu Zurusa (4.19)
14. Tsumasaki Kara No Keikoku (2.17)
15. Kikiakasarerenaai Koto (2.27)
16. Massugu Tte Kore De ii No ? (5.22)
Recorded November 1996
 
Лог создания рипа
Exact Audio Copy V0.99 prebeta 4 from 23. January 2008
EAC extraction logfile from 19. April 2009, 9:54
Derek Bailey & Keiji Haino / Songs
Used drive : TSSTcorpCDDVDW TS-L633L Adapter: 2 ID: 0
Read mode : Secure
Utilize accurate stream : Yes
Defeat audio cache : Yes
Make use of C2 pointers : No
Read offset correction : 6
Overread into Lead-In and Lead-Out : No
Fill up missing offset samples with silence : Yes
Delete leading and trailing silent blocks : No
Null samples used in CRC calculations : Yes
Used interface : Native Win32 interface for Win NT & 2000
Gap handling : Appended to previous track
Used output format : User Defined Encoder
Selected bitrate : 128 kBit/s
Quality : High
Add ID3 tag : No
Command line compressor : C:\Program Files\Exact Audio Copy\Flac\flac.exe
Additional command line options : -V -8 -T "artist=%a" -T "title=%t" -T "album=%g" -T "date=%y" -T "tracknumber=%n" -T "genre=%m" %s
TOC of the extracted CD
Track | Start | Length | Start sector | End sector
---------------------------------------------------------
1 | 0:00.00 | 2:19.00 | 0 | 10424
2 | 2:19.00 | 2:43.63 | 10425 | 22712
3 | 5:02.63 | 4:41.47 | 22713 | 43834
4 | 9:44.35 | 0:52.51 | 43835 | 47785
5 | 10:37.11 | 1:14.72 | 47786 | 53407
6 | 11:52.08 | 2:10.35 | 53408 | 63192
7 | 14:02.43 | 1:57.25 | 63193 | 71992
8 | 15:59.68 | 0:54.23 | 71993 | 76065
9 | 16:54.16 | 1:25.42 | 76066 | 82482
10 | 18:19.58 | 1:11.71 | 82483 | 87878
11 | 19:31.54 | 4:09.06 | 87879 | 106559
12 | 23:40.60 | 4:10.11 | 106560 | 125320
13 | 27:50.71 | 4:19.54 | 125321 | 144799
14 | 32:10.50 | 2:17.68 | 144800 | 155142
15 | 34:28.43 | 2:27.40 | 155143 | 166207
16 | 36:56.08 | 5:22.27 | 166208 | 190384
Track 1
Filename C:\EACrips\Derek Bailey & Keiji Haino - 1996 - Songs\01 - Yume Ga Ichiban Muchi .wav
Pre-gap length 0:00:02.00
Peak level 97.8 %
Track quality 100.0 %
Test CRC 94643630
Copy CRC 94643630
Track not present in AccurateRip database
Copy OK
Track 2
Filename C:\EACrips\Derek Bailey & Keiji Haino - 1996 - Songs\02 - 25 No Seimeitai .wav
Peak level 95.3 %
Track quality 100.0 %
Test CRC 0C8B1E6E
Copy CRC 0C8B1E6E
Track not present in AccurateRip database
Copy OK
Track 3
Filename C:\EACrips\Derek Bailey & Keiji Haino - 1996 - Songs\03 - Aru Knashika No June .wav
Peak level 96.1 %
Track quality 100.0 %
Test CRC 46431247
Copy CRC 46431247
Track not present in AccurateRip database
Copy OK
Track 4
Filename C:\EACrips\Derek Bailey & Keiji Haino - 1996 - Songs\04 - 2 To Mugen No Torihiki .wav
Pre-gap length 0:00:00.01
Peak level 95.7 %
Track quality 100.0 %
Test CRC DDEACC0F
Copy CRC DDEACC0F
Track not present in AccurateRip database
Copy OK
Track 5
Filename C:\EACrips\Derek Bailey & Keiji Haino - 1996 - Songs\05 - Zen'T No Yokubo .wav
Peak level 49.3 %
Track quality 100.0 %
Test CRC 5C513275
Copy CRC 5C513275
Track not present in AccurateRip database
Copy OK
Track 6
Filename C:\EACrips\Derek Bailey & Keiji Haino - 1996 - Songs\06 - Boka Ga Nejirekireru To Ai .wav
Pre-gap length 0:00:00.01
Peak level 95.2 %
Track quality 100.0 %
Test CRC 03C5B016
Copy CRC 03C5B016
Track not present in AccurateRip database
Copy OK
Track 7
Filename C:\EACrips\Derek Bailey & Keiji Haino - 1996 - Songs\07 - Zureteyuku No Ha Watashi Soretomo Ima .wav
Peak level 50.5 %
Track quality 100.0 %
Test CRC 839F1A05
Copy CRC 839F1A05
Track not present in AccurateRip database
Copy OK
Track 8
Filename C:\EACrips\Derek Bailey & Keiji Haino - 1996 - Songs\08 - Ten To Tomo Ni Ishoni Itagaru Shugo .wav
Pre-gap length 0:00:00.01
Peak level 95.2 %
Track quality 100.0 %
Test CRC E7CCB88C
Copy CRC E7CCB88C
Track not present in AccurateRip database
Copy OK
Track 9
Filename C:\EACrips\Derek Bailey & Keiji Haino - 1996 - Songs\09 - Egatai Kanashimi O Te Ni Ireta .wav
Peak level 77.3 %
Track quality 100.0 %
Test CRC E5400A83
Copy CRC E5400A83
Track not present in AccurateRip database
Copy OK
Track 10
Filename C:\EACrips\Derek Bailey & Keiji Haino - 1996 - Songs\10 - Chotto Burusu Ni Aisaitsu .wav
Pre-gap length 0:00:00.01
Peak level 89.8 %
Track quality 100.0 %
Test CRC CA1E6AC1
Copy CRC CA1E6AC1
Track not present in AccurateRip database
Copy OK
Track 11
Filename C:\EACrips\Derek Bailey & Keiji Haino - 1996 - Songs\11 - Kotera Aenalhazu Na No Ni .wav
Pre-gap length 0:00:00.01
Peak level 69.7 %
Track quality 100.0 %
Test CRC 0A4918E8
Copy CRC 0A4918E8
Track not present in AccurateRip database
Copy OK
Track 12
Filename C:\EACrips\Derek Bailey & Keiji Haino - 1996 - Songs\12 - Ichi O Tashikamete Kara... .wav
Pre-gap length 0:00:00.01
Peak level 95.1 %
Track quality 100.0 %
Test CRC 39878876
Copy CRC 39878876
Track not present in AccurateRip database
Copy OK
Track 13
Filename C:\EACrips\Derek Bailey & Keiji Haino - 1996 - Songs\13 - Fuluzatsu To Iu Zurusa .wav
Peak level 82.7 %
Track quality 100.0 %
Test CRC 67118B55
Copy CRC 67118B55
Track not present in AccurateRip database
Copy OK
Track 14
Filename C:\EACrips\Derek Bailey & Keiji Haino - 1996 - Songs\14 - Tsumasaki Kara No Keikoku .wav
Pre-gap length 0:00:00.01
Peak level 99.8 %
Track quality 100.0 %
Test CRC 051726DF
Copy CRC 051726DF
Track not present in AccurateRip database
Copy OK
Track 15
Filename C:\EACrips\Derek Bailey & Keiji Haino - 1996 - Songs\15 - Kikiak Asarerarenai Koto .wav
Peak level 64.7 %
Track quality 100.0 %
Test CRC 7DB8BF2C
Copy CRC 7DB8BF2C
Track not present in AccurateRip database
Copy OK
Track 16
Filename C:\EACrips\Derek Bailey & Keiji Haino - 1996 - Songs\16 - Massugu Tte Kore De II No .wav
Pre-gap length 0:00:00.01
Peak level 95.4 %
Track quality 100.0 %
Test CRC 34820928
Copy CRC 34820928
Track not present in AccurateRip database
Copy OK
None of the tracks are present in the AccurateRip database
No errors occurred
End of status report
 
Содержание индексной карты (.CUE)
REM GENRE Avantgarde
REM DATE 1996
REM DISCID B509EA10
REM COMMENT "ExactAudioCopy v0.99pb4"
PERFORMER "Derek Bailey & Keiji Haino"
TITLE "Songs"
FILE "01 - Yume Ga Ichiban Muchi .wav" WAVE
TRACK 01 AUDIO
TITLE "Yume Ga Ichiban Muchi"
PERFORMER "Derek Bailey & Keiji Haino"
INDEX 01 00:00:00
FILE "02 - 25 No Seimeitai .wav" WAVE
TRACK 02 AUDIO
TITLE "25 No Seimeitai"
PERFORMER "Derek Bailey & Keiji Haino"
INDEX 01 00:00:00
FILE "03 - Aru Knashika No June .wav" WAVE
TRACK 03 AUDIO
TITLE "Aru Knashika No June"
PERFORMER "Derek Bailey & Keiji Haino"
INDEX 01 00:00:00
TRACK 04 AUDIO
TITLE "2 To Mugen No Torihiki"
PERFORMER "Derek Bailey & Keiji Haino"
INDEX 00 04:41:46
FILE "04 - 2 To Mugen No Torihiki .wav" WAVE
INDEX 01 00:00:00
FILE "05 - Zen'T No Yokubo .wav" WAVE
TRACK 05 AUDIO
TITLE "Zen'T No Yokubo"
PERFORMER "Derek Bailey & Keiji Haino"
INDEX 01 00:00:00
TRACK 06 AUDIO
TITLE "Boka Ga Nejirekireru To Ai"
PERFORMER "Derek Bailey & Keiji Haino"
INDEX 00 01:14:71
FILE "06 - Boka Ga Nejirekireru To Ai .wav" WAVE
INDEX 01 00:00:00
FILE "07 - Zureteyuku No Ha Watashi Soretomo Ima .wav" WAVE
TRACK 07 AUDIO
TITLE "Zureteyuku No Ha Watashi Soretomo Ima"
PERFORMER "Derek Bailey & Keiji Haino"
INDEX 01 00:00:00
TRACK 08 AUDIO
TITLE "Ten To Tomo Ni Ishoni Itagaru Shugo"
PERFORMER "Derek Bailey & Keiji Haino"
INDEX 00 01:57:24
FILE "08 - Ten To Tomo Ni Ishoni Itagaru Shugo .wav" WAVE
INDEX 01 00:00:00
FILE "09 - Egatai Kanashimi O Te Ni Ireta .wav" WAVE
TRACK 09 AUDIO
TITLE "Egatai Kanashimi O Te Ni Ireta"
PERFORMER "Derek Bailey & Keiji Haino"
INDEX 01 00:00:00
TRACK 10 AUDIO
TITLE "Chotto Burusu Ni Aisaitsu"
PERFORMER "Derek Bailey & Keiji Haino"
INDEX 00 01:25:41
FILE "10 - Chotto Burusu Ni Aisaitsu .wav" WAVE
INDEX 01 00:00:00
TRACK 11 AUDIO
TITLE "Kotera Aenalhazu Na No Ni"
PERFORMER "Derek Bailey & Keiji Haino"
INDEX 00 01:11:70
FILE "11 - Kotera Aenalhazu Na No Ni .wav" WAVE
INDEX 01 00:00:00
TRACK 12 AUDIO
TITLE "Ichi O Tashikamete Kara..."
PERFORMER "Derek Bailey & Keiji Haino"
INDEX 00 04:09:05
FILE "12 - Ichi O Tashikamete Kara... .wav" WAVE
INDEX 01 00:00:00
FILE "13 - Fuluzatsu To Iu Zurusa .wav" WAVE
TRACK 13 AUDIO
TITLE "Fuluzatsu To Iu Zurusa"
PERFORMER "Derek Bailey & Keiji Haino"
INDEX 01 00:00:00
TRACK 14 AUDIO
TITLE "Tsumasaki Kara No Keikoku"
PERFORMER "Derek Bailey & Keiji Haino"
INDEX 00 04:19:53
FILE "14 - Tsumasaki Kara No Keikoku .wav" WAVE
INDEX 01 00:00:00
FILE "15 - Kikiak Asarerarenai Koto .wav" WAVE
TRACK 15 AUDIO
TITLE "Kikiak Asarerarenai Koto"
PERFORMER "Derek Bailey & Keiji Haino"
INDEX 01 00:00:00
TRACK 16 AUDIO
TITLE "Massugu Tte Kore De II No"
PERFORMER "Derek Bailey & Keiji Haino"
INDEX 00 02:27:39
FILE "16 - Massugu Tte Kore De II No .wav" WAVE
INDEX 01 00:00:00
 
Лог проверки качества
AUDIOCHECKER v2.0 beta (build 457) - by Dester - opdester@freemail.hu
~~~~~~~~~~~~~~~~~~~~~~~~~~~~~~~~~~
-=== DO NOT EDIT THIS FILE! ===-
Path: ...\Derek Bailey & Keiji Haino - 1996 - Songs
01 -=- 01 - Yume Ga Ichiban Muchi .flac -=- CDDA (100%)
02 -=- 02 - 25 No Seimeitai .flac -=- CDDA (100%)
03 -=- 03 - Aru Knashika No June .flac -=- CDDA (100%)
04 -=- 04 - 2 To Mugen No Torihiki .flac -=- CDDA (100%)
05 -=- 05 - Zen'T No Yokubo .flac -=- CDDA (100%)
06 -=- 06 - Boka Ga Nejirekireru To Ai .flac -=- CDDA (100%)
07 -=- 07 - Zureteyuku No Ha Watashi Soretomo Ima .flac -=- CDDA (100%)
08 -=- 08 - Ten To Tomo Ni Ishoni Itagaru Shugo .flac -=- CDDA (100%)
09 -=- 09 - Egatai Kanashimi O Te Ni Ireta .flac -=- CDDA (99%)
10 -=- 10 - Chotto Burusu Ni Aisaitsu .flac -=- CDDA (100%)
11 -=- 11 - Kotera Aenalhazu Na No Ni .flac -=- CDDA (100%)
12 -=- 12 - Ichi O Tashikamete Kara... .flac -=- CDDA (100%)
13 -=- 13 - Fuluzatsu To Iu Zurusa .flac -=- CDDA (100%)
14 -=- 14 - Tsumasaki Kara No Keikoku .flac -=- CDDA (100%)
15 -=- 15 - Kikiak Asarerarenai Koto .flac -=- CDDA (100%)
16 -=- 16 - Massugu Tte Kore De II No .flac -=- CDDA (100%)
Summary 99,94% CDDA
165420628
 
Состав
Derek Bailey, guitar.
灰野敬二 (Keiji Haino), voice.
По всем вопросам пишите личное сообщение пользователю M0p94ok.
16:28
208
Нет комментариев. Ваш будет первым!