Поиск

(Free Improvisation) Derek Bailey & Joelle Leandre - No Waiting - 1997, APE (image + .cue), lossless

(Free Improvisation) Derek Bailey & Joelle Leandre - No Waiting - 1997, APE (image + .cue), lossless
Треклист:
Derek Bailey & Joelle Leandre - No Waiting
Страна: UK
Жанр: Free Improvisation
Год выпуска: 1997
Формат: APE (image + .cue)
Битрейт аудио: lossless
Продолжительность: 0:49:58
Трэклист:
1-5. No waiting 1-5
Доп. информация:
http://allmusic.com/cg/amg.dll?p=amg&sql=10:apfpxq8kld6e
 
Отчёт EAC
Exact Audio Copy V0.99 prebeta 4 from 23. January 2008
EAC extraction logfile from 20. May 2008, 21:32
Derek Bailey & Joelle Leandre / No Waiting
Used drive : _NEC DVD_RW ND-3500AG Adapter: 0 ID: 2
Read mode : Secure
Utilize accurate stream : Yes
Defeat audio cache : Yes
Make use of C2 pointers : No
Read offset correction : 48
Overread into Lead-In and Lead-Out : No
Fill up missing offset samples with silence : Yes
Delete leading and trailing silent blocks : No
Null samples used in CRC calculations : Yes
Used interface : Native Win32 interface for Win NT & 2000
Used output format : Internal WAV Routines
Sample format : 44.100 Hz; 16 Bit; Stereo
TOC of the extracted CD
Track | Start | Length | Start sector | End sector
---------------------------------------------------------
1 | 0:00.00 | 17:05.02 | 0 | 76876
2 | 17:05.02 | 6:43.40 | 76877 | 107141
3 | 23:48.42 | 9:12.03 | 107142 | 148544
4 | 33:00.45 | 10:19.42 | 148545 | 195011
5 | 43:20.12 | 6:37.73 | 195012 | 224859
Range status and errors
Selected range
Filename E:\EAC\Derek Bailey & Joelle Leandre 1997 No Waiting\Derek Bailey & Joelle Leandre - No Waiting.wav
Peak level 99.9 %
Range quality 100.0 %
Copy CRC 9C87F9CC
Copy OK
No errors occurred
End of status report
Приватный:
Нет (DHT включён)
Размер:
190.96 Мб (200,239,865 байт) » файлов: 3
Участники:
0 раздают, 0 качают (0 участников всего)
Внешние участники:
3 раздают, 1 качают (4 участников всего) [ Обновить ]
Есть вопросы - пишите личное сообщение пользователю M0p94ok.
01:19
51
Нет комментариев. Ваш будет первым!