Вы используете незарегистрированную версию компонента "Вкладки"!

Поиск

(Free Improvisation) Daunik Lazro & Joe McPhee - Elan. Impulse. - 1991, FLAC (tracks+.cue), lossless

(Free Improvisation) Daunik Lazro & Joe McPhee - Elan. Impulse. - 1991, FLAC (tracks+.cue), lossless
Треклист:
Daunik Lazro & Joe McPhee - Elan. Impulse.
Жанр: Free Improvisation
Страна-производитель диска: France
Год издания диска: 1991
Издатель (лейбл): in Situ
Номер по каталогу: 590075
Аудиокодек: FLAC (*.flac)
Тип рипа: tracks+.cue
Битрейт аудио: lossless
Продолжительность: 1:01:52
Источник (релизер): собственный рип с оригинального диска.
Наличие сканов в содержимом раздачи: да
Треклист:
01. Reasons I 7:44
02. Logic Circles 7:41
03. Pearl Street 8:48
04. Sand Dancer 2:15
05. Come Sunday 7:43
06. Reasons II 4:59
07. Joker 7:21
08. Cordered 3:39
09. Reasons III 6:15
10. Arcs 4:50
 
Лог создания рипа
Exact Audio Copy V1.0 beta 2 from 29. April 2011
EAC extraction logfile from 4. February 2012, 17:05
Daunik Lazro - Joe McPhee / Elan.Impulse.
Used drive : TSSTcorpCDDVDW SH-S222A Adapter: 1 ID: 0
Read mode : Secure
Utilize accurate stream : Yes
Defeat audio cache : Yes
Make use of C2 pointers : No
Read offset correction : 6
Overread into Lead-In and Lead-Out : No
Fill up missing offset samples with silence : Yes
Delete leading and trailing silent blocks : No
Null samples used in CRC calculations : Yes
Used interface : Native Win32 interface for Win NT & 2000
Gap handling : Appended to previous track
Used output format : User Defined Encoder
Selected bitrate : 896 kBit/s
Quality : High
Add ID3 tag : No
Command line compressor : C:\Tool\CD\EAC10\FLAC\FLAC.EXE
Additional command line options : -6 -V -T "ARTIST=%artist%" -T "TITLE=%title%" -T "ALBUM=%albumtitle%" -T "DATE=%year%" -T "TRACKNUMBER=%tracknr%" -T "GENRE=%genre%" -T "COMMENT=%comment%" -T "BAND=%albuminterpret%" -T "COMPOSER=%composer%" %haslyrics%--ta
TOC of the extracted CD
Track | Start | Length | Start sector | End sector
---------------------------------------------------------
1 | 0:00.33 | 7:47.70 | 33 | 35127
2 | 7:48.28 | 7:44.45 | 35128 | 69972
3 | 15:32.73 | 8:53.27 | 69973 | 109974
4 | 24:26.25 | 2:19.40 | 109975 | 120439
5 | 26:45.65 | 7:49.10 | 120440 | 155624
6 | 34:35.00 | 5:03.25 | 155625 | 178374
7 | 39:38.25 | 7:23.60 | 178375 | 211659
8 | 47:02.10 | 3:44.13 | 211660 | 228472
9 | 50:46.23 | 6:20.22 | 228473 | 256994
10 | 57:06.45 | 4:50.63 | 256995 | 278807
Track 1
Filename C:\! UPLOAD\Daunik Lazro - Joe McPhee - Elan.Impulse. (1991) [FLAC] {in Situ}\01 - Reasons I.wav
Pre-gap length 0:00:02.33
Peak level 85.4 %
Extraction speed 3.6 X
Track quality 100.0 %
Test CRC 53AC5F7B
Copy CRC 53AC5F7B
Track not present in AccurateRip database
Copy OK
Track 2
Filename C:\! UPLOAD\Daunik Lazro - Joe McPhee - Elan.Impulse. (1991) [FLAC] {in Situ}\02 - Logic Circles.wav
Pre-gap length 0:00:03.23
Peak level 71.5 %
Extraction speed 3.5 X
Track quality 100.0 %
Test CRC F166CD0E
Copy CRC F166CD0E
Track not present in AccurateRip database
Copy OK
Track 3
Filename C:\! UPLOAD\Daunik Lazro - Joe McPhee - Elan.Impulse. (1991) [FLAC] {in Situ}\03 - Pearl Street.wav
Pre-gap length 0:00:03.40
Peak level 81.8 %
Extraction speed 3.6 X
Track quality 100.0 %
Test CRC CB7BF012
Copy CRC CB7BF012
Track not present in AccurateRip database
Copy OK
Track 4
Filename C:\! UPLOAD\Daunik Lazro - Joe McPhee - Elan.Impulse. (1991) [FLAC] {in Situ}\04 - Sand Dancer.wav
Pre-gap length 0:00:05.00
Peak level 35.9 %
Extraction speed 3.1 X
Track quality 100.0 %
Test CRC 484A578D
Copy CRC 484A578D
Track not present in AccurateRip database
Copy OK
Track 5
Filename C:\! UPLOAD\Daunik Lazro - Joe McPhee - Elan.Impulse. (1991) [FLAC] {in Situ}\05 - Come Sunday.wav
Pre-gap length 0:00:04.17
Peak level 94.4 %
Extraction speed 3.3 X
Track quality 99.9 %
Test CRC 0A4BD582
Copy CRC 0A4BD582
Track not present in AccurateRip database
Copy OK
Track 6
Filename C:\! UPLOAD\Daunik Lazro - Joe McPhee - Elan.Impulse. (1991) [FLAC] {in Situ}\06 - Reasons II.wav
Pre-gap length 0:00:05.27
Peak level 63.8 %
Extraction speed 3.4 X
Track quality 100.0 %
Test CRC 02DC2BF0
Copy CRC 02DC2BF0
Track not present in AccurateRip database
Copy OK
Track 7
Filename C:\! UPLOAD\Daunik Lazro - Joe McPhee - Elan.Impulse. (1991) [FLAC] {in Situ}\07 - Joker.wav
Pre-gap length 0:00:03.65
Peak level 52.3 %
Extraction speed 3.5 X
Track quality 100.0 %
Test CRC 3A425AB5
Copy CRC 3A425AB5
Track not present in AccurateRip database
Copy OK
Track 8
Filename C:\! UPLOAD\Daunik Lazro - Joe McPhee - Elan.Impulse. (1991) [FLAC] {in Situ}\08 - Cordered.wav
Pre-gap length 0:00:01.72
Peak level 80.2 %
Extraction speed 3.3 X
Track quality 100.0 %
Test CRC DC0D8CB6
Copy CRC DC0D8CB6
Track not present in AccurateRip database
Copy OK
Track 9
Filename C:\! UPLOAD\Daunik Lazro - Joe McPhee - Elan.Impulse. (1991) [FLAC] {in Situ}\09 - Reasons III.wav
Pre-gap length 0:00:04.43
Peak level 88.7 %
Extraction speed 3.5 X
Track quality 100.0 %
Test CRC B0C42C5E
Copy CRC B0C42C5E
Track not present in AccurateRip database
Copy OK
Track 10
Filename C:\! UPLOAD\Daunik Lazro - Joe McPhee - Elan.Impulse. (1991) [FLAC] {in Situ}\10 - Arcs.wav
Pre-gap length 0:00:04.52
Peak level 73.8 %
Extraction speed 2.8 X
Track quality 99.9 %
Test CRC 97EAC813
Copy CRC 97EAC813
Track not present in AccurateRip database
Copy OK
None of the tracks are present in the AccurateRip database
No errors occurred
End of status report
==== Log checksum 519D899E38086E49389E9A2B914EE69435A6F57F8BF047F3F2F9C1C770D78745 ====
 
Содержание индексной карты (.CUE)
REM GENRE "Free Jazz"
REM DATE 1991
REM DISCID 8B0E850A
REM COMMENT "ExactAudioCopy v1.0b2"
PERFORMER "Daunik Lazro - Joe McPhee"
TITLE "Elan.Impulse."
FILE "01 - Reasons I.wav" WAVE
TRACK 01 AUDIO
TITLE "Reasons I"
PERFORMER "Daunik Lazro - Joe McPhee"
PREGAP 00:00:33
INDEX 01 00:00:00
TRACK 02 AUDIO
TITLE "Logic Circles"
PERFORMER "Daunik Lazro - Joe McPhee"
INDEX 00 07:44:47
FILE "02 - Logic Circles.wav" WAVE
INDEX 01 00:00:00
TRACK 03 AUDIO
TITLE "Pearl Street"
PERFORMER "Daunik Lazro - Joe McPhee"
INDEX 00 07:41:05
FILE "03 - Pearl Street.wav" WAVE
INDEX 01 00:00:00
TRACK 04 AUDIO
TITLE "Sand Dancer"
PERFORMER "Daunik Lazro - Joe McPhee"
INDEX 00 08:48:27
FILE "04 - Sand Dancer.wav" WAVE
INDEX 01 00:00:00
TRACK 05 AUDIO
TITLE "Come Sunday"
PERFORMER "Daunik Lazro - Joe McPhee"
INDEX 00 02:15:23
FILE "05 - Come Sunday.wav" WAVE
INDEX 01 00:00:00
TRACK 06 AUDIO
TITLE "Reasons II"
PERFORMER "Daunik Lazro - Joe McPhee"
INDEX 00 07:43:58
FILE "06 - Reasons II.wav" WAVE
INDEX 01 00:00:00
TRACK 07 AUDIO
TITLE "Joker"
PERFORMER "Daunik Lazro - Joe McPhee"
INDEX 00 04:59:35
FILE "07 - Joker.wav" WAVE
INDEX 01 00:00:00
TRACK 08 AUDIO
TITLE "Cordered"
PERFORMER "Daunik Lazro - Joe McPhee"
INDEX 00 07:21:63
FILE "08 - Cordered.wav" WAVE
INDEX 01 00:00:00
TRACK 09 AUDIO
TITLE "Reasons III"
PERFORMER "Daunik Lazro - Joe McPhee"
INDEX 00 03:39:45
FILE "09 - Reasons III.wav" WAVE
INDEX 01 00:00:00
TRACK 10 AUDIO
TITLE "Arcs"
PERFORMER "Daunik Lazro - Joe McPhee"
INDEX 00 06:15:45
FILE "10 - Arcs.wav" WAVE
INDEX 01 00:00:00
Доп. информация:
Recording April, 1991 at 3ème Nuit Culturelle Nancy and in Studio C.C.A.M. Vandoeuvre.
 
Об исполнителе (группе)
This live duet from 1991 in France is a stellar example of why Joe McPhee is among the most versatile and deft improvisers on the planet, as well as one of the tenor saxophone's key postmodern stylists. ....... This duo digs deep into the spirit of a particular night in France and calls out of it the entire improvisational tradition from Duke Ellington (whose "Come Sunday" is featured here) to Steve Lacy (whose "Pearl Street" is played movingly) and the host of time periods in between. There are even moments to suggest, when Lazro is playing his alto or baritone, an even earlier era than Ellington. McPhee and Lazro understand the language of the sanguine, of elasticity in tonal images. They employ a startling array of voices, not to break the images down but to tie them together with something new at the end (or the beginning), and circumnavigate the historical orb that way.
This is jazz as trance music, as music spinning through history, and as inspired ranting and raving on the threshold of the unspeakable. As McPhee and Lazro move into their own improvisations, where Sonny Rollins is juxtaposed against Henry Cowell and Guy Lombardo yet read through McPhee's deep, R&B-influenced playing ("Sand Dancer"), you know something's up. When John Cage and John Coltrane are evoked with trombones and soprano saxophones, as they are in "Reason III," listeners know that civilization has indeed not ended or fragmented but instead has dovetailed and moved toward some kind of acceptance of forms. This is an astonishing record. Period. ~ Thom Jurek
 
Об альбоме (сборнике)
JOE McPHEE et DAUNIK LAZRO vagabondent depuis si longtemps dans l’histoire des musiques improvisées qu’ils en sont à la fois les héritiers et les fossoyeurs. Un trop court moment, débarrassés du souci d’innover les souffles se sont conjugués , une presque indécente intimité.
 
Состав
Daunik Lazro - alto and baritone saxophone
Joe McPhee - soprano and tenor saxophone, voice, piston of trombone
Any questions -> support@pro-jazz.com. По всем вопросам пишите -> support@pro-jazz.com
22:02
135
Нет комментариев. Ваш будет первым!