Вы используете незарегистрированную версию компонента "Вкладки"!

Поиск

(Free Improvisation, Dark Ambient) [CD] Tom Baker — What Remains — 2005, FLAC (tracks+.cue), lossless

(Free Improvisation, Dark Ambient) [CD] Tom Baker — What Remains — 2005, FLAC (tracks+.cue), lossless
Треклист:
Tom Baker / What Remains
Жанр: Free Improvisation, Dark Ambient
Носитель: CD
Год издания: 2005
Страна: Canada
Аудиокодек: FLAC (*.flac)
Тип рипа: tracks+.cue
Битрейт аудио: lossless
Продолжительность: 35:58
Источник (релизер): what.cd
Наличие сканов в содержимом раздачи: нет
Треклист:
1 one
2 two
3 three
4 four
5 five
6 six
7 seven
 
Лог создания рипа
X Lossless Decoder version 20130127 (142.3)
XLD extraction logfile from 2013-04-03 13:26:44 -0700
Tom Baker / What Remains
Used drive : OPTIARC DVD RW AD-5970H (revision 3APE)
Media type : Pressed CD
Ripper mode : XLD Secure Ripper
Disable audio cache : OK for the drive with a cache less than 1375KiB
Make use of C2 pointers : NO
Read offset correction : 48
Max retry count : 20
Gap status : Analyzed, Appended (except HTOA)
TOC of the extracted CD
Track | Start | Length | Start sector | End sector
---------------------------------------------------------
1 | 00:00:00 | 05:37:65 | 0 | 25339
2 | 05:37:65 | 05:04:66 | 25340 | 48205
3 | 10:42:56 | 05:31:09 | 48206 | 73039
4 | 16:13:65 | 04:35:15 | 73040 | 93679
5 | 20:49:05 | 05:59:52 | 93680 | 120656
6 | 26:48:57 | 04:06:06 | 120657 | 139112
7 | 30:54:63 | 05:03:65 | 139113 | 161902
AccurateRip Summary
Disc not found in AccurateRip DB.
All Tracks
Album gain : -4.31 dB
Peak : 0.966187
Statistics
Read error : 0
Jitter error (maybe fixed) : 0
Retry sector count : 0
Damaged sector count : 0
Track 01
Filename : /Users/andywilm/Desktop/Tom Baker - What Remains (2005) [FLAC]/01 one.flac
Pre-gap length : 00:02:00
Track gain : 0.19 dB
Peak : 0.966187
CRC32 hash (test run) : F7E92C9A
CRC32 hash : F7E92C9A
CRC32 hash (skip zero) : AE7126E7
AccurateRip v1 signature : 65BB7CFA
AccurateRip v2 signature : 00F934CC
->Track not present in AccurateRip database.
Statistics
Read error : 0
Jitter error (maybe fixed) : 0
Retry sector count : 0
Damaged sector count : 0
Track 02
Filename : /Users/andywilm/Desktop/Tom Baker - What Remains (2005) [FLAC]/02 two.flac
Pre-gap length : 00:06:58
Track gain : -2.86 dB
Peak : 0.921844
CRC32 hash (test run) : 9CA84A53
CRC32 hash : 9CA84A53
CRC32 hash (skip zero) : FAD4B4F3
AccurateRip v1 signature : 8383879F
AccurateRip v2 signature : 130EBA07
->Track not present in AccurateRip database.
Statistics
Read error : 0
Jitter error (maybe fixed) : 0
Retry sector count : 0
Damaged sector count : 0
Track 03
Filename : /Users/andywilm/Desktop/Tom Baker - What Remains (2005) [FLAC]/03 three.flac
Pre-gap length : 00:04:43
Track gain : 2.20 dB
Peak : 0.862213
CRC32 hash (test run) : C88405C6
CRC32 hash : C88405C6
CRC32 hash (skip zero) : B9EBC51B
AccurateRip v1 signature : DD644E45
AccurateRip v2 signature : C64328E0
->Track not present in AccurateRip database.
Statistics
Read error : 0
Jitter error (maybe fixed) : 0
Retry sector count : 0
Damaged sector count : 0
Track 04
Filename : /Users/andywilm/Desktop/Tom Baker - What Remains (2005) [FLAC]/04 four.flac
Pre-gap length : 00:05:20
Track gain : -7.14 dB
Peak : 0.966156
CRC32 hash (test run) : 2D771E7E
CRC32 hash : 2D771E7E
CRC32 hash (skip zero) : 7B073DDB
AccurateRip v1 signature : 3D7A9771
AccurateRip v2 signature : E6619B60
->Track not present in AccurateRip database.
Statistics
Read error : 0
Jitter error (maybe fixed) : 0
Retry sector count : 0
Damaged sector count : 0
Track 05
Filename : /Users/andywilm/Desktop/Tom Baker - What Remains (2005) [FLAC]/05 five.flac
Pre-gap length : 00:06:17
Track gain : -4.70 dB
Peak : 0.966156
CRC32 hash (test run) : 6D54550C
CRC32 hash : 6D54550C
CRC32 hash (skip zero) : ED716F6E
AccurateRip v1 signature : 2E942743
AccurateRip v2 signature : 9D34EB03
->Track not present in AccurateRip database.
Statistics
Read error : 0
Jitter error (maybe fixed) : 0
Retry sector count : 0
Damaged sector count : 0
Track 06
Filename : /Users/andywilm/Desktop/Tom Baker - What Remains (2005) [FLAC]/06 six.flac
Pre-gap length : 00:03:60
Track gain : 0.52 dB
Peak : 0.751617
CRC32 hash (test run) : 2EA29445
CRC32 hash : 2EA29445
CRC32 hash (skip zero) : 734CE62B
AccurateRip v1 signature : F8CE1AA7
AccurateRip v2 signature : 8FCB7F97
->Track not present in AccurateRip database.
Statistics
Read error : 0
Jitter error (maybe fixed) : 0
Retry sector count : 0
Damaged sector count : 0
Track 07
Filename : /Users/andywilm/Desktop/Tom Baker - What Remains (2005) [FLAC]/07 seven.flac
Pre-gap length : 00:07:51
Track gain : -0.58 dB
Peak : 0.966125
CRC32 hash (test run) : 5E555EDB
CRC32 hash : 5E555EDB
CRC32 hash (skip zero) : 30982C70
AccurateRip v1 signature : 45DF1E81
AccurateRip v2 signature : 0F549618
->Track not present in AccurateRip database.
Statistics
Read error : 0
Jitter error (maybe fixed) : 0
Retry sector count : 0
Damaged sector count : 0
No errors occurred
End of status report
 
Содержание индексной карты (.CUE)
TITLE "What Remains"
PERFORMER "Tom Baker"
REM GENRE "Electronic"
REM DATE "2005"
REM DISCNUMBER 1
REM TOTALDISCS 1
REM DISCID 59086E07
REM REPLAYGAIN_ALBUM_GAIN -4.31 dB
REM REPLAYGAIN_ALBUM_PEAK 0.966187
FILE "01 one.flac" WAVE
TRACK 01 AUDIO
TITLE "one"
REM REPLAYGAIN_TRACK_GAIN 0.19 dB
REM REPLAYGAIN_TRACK_PEAK 0.966187
INDEX 01 00:00:00
TRACK 02 AUDIO
TITLE "two"
REM REPLAYGAIN_TRACK_GAIN -2.86 dB
REM REPLAYGAIN_TRACK_PEAK 0.921844
INDEX 00 05:31:07
FILE "02 two.flac" WAVE
INDEX 01 00:00:00
TRACK 03 AUDIO
TITLE "three"
REM REPLAYGAIN_TRACK_GAIN 2.20 dB
REM REPLAYGAIN_TRACK_PEAK 0.862213
INDEX 00 05:00:23
FILE "03 three.flac" WAVE
INDEX 01 00:00:00
TRACK 04 AUDIO
TITLE "four"
REM REPLAYGAIN_TRACK_GAIN -7.14 dB
REM REPLAYGAIN_TRACK_PEAK 0.966156
INDEX 00 05:25:64
FILE "04 four.flac" WAVE
INDEX 01 00:00:00
TRACK 05 AUDIO
TITLE "five"
REM REPLAYGAIN_TRACK_GAIN -4.70 dB
REM REPLAYGAIN_TRACK_PEAK 0.966156
INDEX 00 04:28:73
FILE "05 five.flac" WAVE
INDEX 01 00:00:00
TRACK 06 AUDIO
TITLE "six"
REM REPLAYGAIN_TRACK_GAIN 0.52 dB
REM REPLAYGAIN_TRACK_PEAK 0.751617
INDEX 00 05:55:67
FILE "06 six.flac" WAVE
INDEX 01 00:00:00
TRACK 07 AUDIO
TITLE "seven"
REM REPLAYGAIN_TRACK_GAIN -0.58 dB
REM REPLAYGAIN_TRACK_PEAK 0.966125
INDEX 00 03:58:30
FILE "07 seven.flac" WAVE
INDEX 01 00:00:00
По всем вопросам пишите личное сообщение пользователю M0p94ok.
22:21
238
Нет комментариев. Ваш будет первым!