Вы используете незарегистрированную версию компонента "Вкладки"!

Поиск

(Free Improvisation) Company (Lee Konitz, Richard Teitelbaum, Carlos Zingaro, Tristan Honsinger, Barre Phillips, Derek Bailey, Steve Noble) - Once - 1989, FLAC (tracks+.cue), lossless

Треклист:
Company - Once
Жанр: Free Improvisation
Год выпуска диска: 1989
Производитель диска: Incus Records (Incus CD04)
Источник: soulseek
Аудио кодек: FLAC
Тип рипа: tracks+.cue
Битрейт аудио: lossless
Продолжительность: 1:10:01
Трэклист:
 
1. Sextet 12:18
Lee Konitz, alto saxophone.
Richard Teitelbaum, keyboards.
Carlos Zingaro, violin.
Tristan Honsinger, cello.
Barre Phillips, bass.
Derek Bailey, electric guitar.
 
2. Duo 13:22
Steve Noble, percussion, bugle, etc.
Barre Phillips, bass.
 
3. Trio 10:49
Tristan Honsinger, cello.
Derek Bailey, electric guitar.
Lee Konitz, alto saxophone & drums.
 
4. Trio II 11:17
Tristan Honsinger, cello.
Carlos Zingaro, violin.
Steve Noble, percussion, saw, etc.
 
5. Quartet 22:15
Richard Teitelbaum, keyboards.
Lee Konitz, alto and soprano saxophones.
Steve Noble, percussion, etc.
Barre Phillips, bass.
Recorded by Chris Clark, Paul Wilson and Michael Gerzon, 12 to 17 May 1987 at the Arts Theatre London
 
Отчёт XLD
X Lossless Decoder version 20090320 (105.1)
XLD extraction logfile from 2009-03-25 15:50:06 -0400
Company / Once
Used drive : MATSHITA DVD-R UJ-867 (revision HA13)
Use cdparanoia mode : YES (CDParanoia III 10.2 engine)
Disable audio cache : OK for the drive with cache less than 2750KB
Make use of C2 pointers : NO
Read offset correction : 102
Max retry count : 100
TOC of the extracted CD
Track | Start | Length | Start sector | End sector
---------------------------------------------------------
1 | 00:00:55 | 12:17:20 | 55 | 55349
2 | 12:18:00 | 13:22:05 | 55350 | 115504
3 | 25:40:05 | 10:49:37 | 115505 | 164216
4 | 36:29:42 | 11:16:45 | 164217 | 214961
5 | 47:46:12 | 22:14:43 | 214962 | 315054
Track 01
Filename : /Users/robg/Music/Rips/01 - Sextet.flac
CRC32 hash (test run) : D5A180C1
CRC32 hash : D5A180C1
CRC32 hash (skip zero) : 20EBD573
AccurateRip signature : E7B18F21
->Track not present in AccurateRip database.
Statistics
Read error : 0
Skipped (treated as error) : 0
Edge jitter error (maybe fixed) : 0
Atom jitter error (maybe fixed) : 0
Drift error (maybe fixed) : 0
Dropped bytes error (maybe fixed) : 0
Duplicated bytes error (maybe fixed) : 0
Inconsistency in error sectors : 0
Track 02
Filename : /Users/robg/Music/Rips/02 - Duo.flac
CRC32 hash (test run) : 349DA7A9
CRC32 hash : 349DA7A9
CRC32 hash (skip zero) : 3A274013
AccurateRip signature : 2ABA3D48
->Track not present in AccurateRip database.
Statistics
Read error : 0
Skipped (treated as error) : 0
Edge jitter error (maybe fixed) : 0
Atom jitter error (maybe fixed) : 0
Drift error (maybe fixed) : 0
Dropped bytes error (maybe fixed) : 0
Duplicated bytes error (maybe fixed) : 0
Inconsistency in error sectors : 0
Track 03
Filename : /Users/robg/Music/Rips/03 - Trio I.flac
CRC32 hash (test run) : 547E0133
CRC32 hash : 547E0133
CRC32 hash (skip zero) : 3A76DF91
AccurateRip signature : 792483EB
->Track not present in AccurateRip database.
Statistics
Read error : 0
Skipped (treated as error) : 0
Edge jitter error (maybe fixed) : 0
Atom jitter error (maybe fixed) : 0
Drift error (maybe fixed) : 0
Dropped bytes error (maybe fixed) : 0
Duplicated bytes error (maybe fixed) : 0
Inconsistency in error sectors : 0
Track 04
Filename : /Users/robg/Music/Rips/04 - Trio II.flac
CRC32 hash (test run) : 2486B3C6
CRC32 hash : 2486B3C6
CRC32 hash (skip zero) : 80E3A32E
AccurateRip signature : 566EE0E7
->Track not present in AccurateRip database.
Statistics
Read error : 0
Skipped (treated as error) : 0
Edge jitter error (maybe fixed) : 0
Atom jitter error (maybe fixed) : 0
Drift error (maybe fixed) : 0
Dropped bytes error (maybe fixed) : 0
Duplicated bytes error (maybe fixed) : 0
Inconsistency in error sectors : 0
Track 05
Filename : /Users/robg/Music/Rips/05 - Quartet.flac
CRC32 hash (test run) : 0B0E99CB
CRC32 hash : 0B0E99CB
CRC32 hash (skip zero) : F5BB72DF
AccurateRip signature : 6DB50CA1
->Track not present in AccurateRip database.
Statistics
Read error : 0
Skipped (treated as error) : 0
Edge jitter error (maybe fixed) : 0
Atom jitter error (maybe fixed) : 0
Drift error (maybe fixed) : 0
Dropped bytes error (maybe fixed) : 0
Duplicated bytes error (maybe fixed) : 0
Inconsistency in error sectors : 0
No errors occurred
End of status report
 
Отчёт Audiocheckera
AUDIOCHECKER v2.0 beta (build 457) - by Dester - opdester@freemail.hu
~~~~~~~~~~~~~~~~~~~~~~~~~~~~~~~~~~
-=== DO NOT EDIT THIS FILE! ===-
Path: ...\company - once (1989) [flac] {incus cd 04}
1 -=- 01 - Sextet.flac -=- CDDA (100%)
2 -=- 02 - Duo.flac -=- CDDA (100%)
3 -=- 03 - Trio I.flac -=- CDDA (99%)
4 -=- 04 - Trio II.flac -=- CDDA (43%)
5 -=- 05 - Quartet.flac -=- CDDA (76%)
Summary 83.60% CDDA
22506500
 
cue
TITLE "Once"
PERFORMER "Company"
REM GENRE "Avantgarde"
REM DATE 1987
FILE "01 - Sextet.wav" WAVE
TRACK 01 AUDIO
TITLE "Sextet"
INDEX 00 00:00:00
INDEX 01 00:00:55
FILE "02 - Duo.wav" WAVE
TRACK 02 AUDIO
TITLE "Duo"
INDEX 01 00:00:00
FILE "03 - Trio I.wav" WAVE
TRACK 03 AUDIO
TITLE "Trio I"
INDEX 01 00:00:00
FILE "04 - Trio II.wav" WAVE
TRACK 04 AUDIO
TITLE "Trio II"
INDEX 01 00:00:00
FILE "05 - Quartet.wav" WAVE
TRACK 05 AUDIO
TITLE "Quartet"
INDEX 01 00:00:00
По всем вопросам пишите личное сообщение пользователю M0p94ok.
21:53
201
Нет комментариев. Ваш будет первым!