Вы используете незарегистрированную версию компонента "Вкладки"!

Поиск

(Free Improvisation) Company 91 (John Zorn, Paul Rogers, Buckethead, Derek Bailey, Paul Lovens, Pat Thomas, Yves Robert, Alexander Balanescu, Vanessa Mackness ) - Volume 2 - 1994, FLAC (tracks+.cue), lossless

Треклист:
Company 91 / Volume 2
Жанр: Free Improvisation
Страна-производитель диска: UK
Год издания: 1994
Издатель (лейбл): Incus Records
Номер по каталогу: CD17
Аудиокодек: FLAC (*.flac)
Тип рипа: tracks+.cue
Битрейт аудио: lossless
Продолжительность: 71:15
Источник (релизер): whatcd
Наличие сканов в содержимом раздачи: нет
Треклист:
1 PT/PR/PL 15:26
2 BK/YR/VM 14:24
3 VM/JZ/PT 8:02
4 AB/DB 5:03
5 JZ/BK/PT 6:03
6 YR/AB/VM 8:32
7 PL/DB/PT 4:32
8 PR/AB/BK 9:11
 
Лог создания рипа
Exact Audio Copy V1.0 beta 3 from 29. August 2011
EAC extraction logfile from 21. May 2012, 18:44
Company 91 / Volume 2
Used drive : TSSTcorpDVD+-RW TS-L633J Adapter: 0 ID: 0
Read mode : Secure
Utilize accurate stream : Yes
Defeat audio cache : Yes
Make use of C2 pointers : No
Read offset correction : 6
Overread into Lead-In and Lead-Out : No
Fill up missing offset samples with silence : Yes
Delete leading and trailing silent blocks : No
Null samples used in CRC calculations : Yes
Used interface : Native Win32 interface for Win NT & 2000
Gap handling : Appended to previous track
Used output format : User Defined Encoder
Selected bitrate : 128 kBit/s
Quality : High
Add ID3 tag : No
Command line compressor : C:\Program Files (x86)\Exact Audio Copy\Flac\flac.exe
Additional command line options : -8 -V -T "ARTIST=%artist%" -T "TITLE=%title%" -T "ALBUM=%albumtitle%" -T "DATE=%year%" -T "TRACKNUMBER=%tracknr%" -T "GENRE=%genre%" -T "PERFORMER=%albuminterpret%" -T "COMPOSER=%composer%" %haslyrics%--tag-from-file=LYRICS="%lyricsfile%"%haslyrics% -T "ALBUMARTIST=%albumartist%" -T "DISCNUMBER=%cdnumber%" -T "TOTALDISCS=%totalcds%" -T "TOTALTRACKS=%numtracks%" -T "COMMENT=%comment%" %source% -o %dest%
TOC of the extracted CD
Track | Start | Length | Start sector | End sector
---------------------------------------------------------
1 | 0:00.55 | 15:26.37 | 55 | 69541
2 | 15:27.17 | 14:24.15 | 69542 | 134356
3 | 29:51.32 | 8:02.05 | 134357 | 170511
4 | 37:53.37 | 5:03.38 | 170512 | 193274
5 | 42:57.00 | 6:03.32 | 193275 | 220531
6 | 49:00.32 | 8:32.38 | 220532 | 258969
7 | 57:32.70 | 4:32.40 | 258970 | 279409
8 | 62:05.35 | 9:11.20 | 279410 | 320754
Track 1
Filename F:\new music downloads\Company 91 - 1991 - Volume 2\01 - PT-PR-PL.wav
Pre-gap length 0:00:02.73
Peak level 77.3 %
Extraction speed 1.5 X
Track quality 100.0 %
Test CRC E2DEB515
Copy CRC E2DEB515
Accurately ripped (confidence 2) [0A843C67] (AR v1)
Copy OK
Track 2
Filename F:\new music downloads\Company 91 - 1991 - Volume 2\02 - BK-YR-VM.wav
Peak level 62.7 %
Extraction speed 1.8 X
Track quality 99.9 %
Test CRC 4E521765
Copy CRC 4E521765
Accurately ripped (confidence 2) [650FFDA4] (AR v1)
Copy OK
Track 3
Filename F:\new music downloads\Company 91 - 1991 - Volume 2\03 - VM-JZ-PT.wav
Peak level 73.6 %
Extraction speed 1.9 X
Track quality 99.9 %
Test CRC DC2971DA
Copy CRC DC2971DA
Accurately ripped (confidence 2) [D10F81F9] (AR v1)
Copy OK
Track 4
Filename F:\new music downloads\Company 91 - 1991 - Volume 2\04 - AB-DB.wav
Peak level 53.1 %
Extraction speed 2.0 X
Track quality 100.0 %
Test CRC 97A5C5FC
Copy CRC 97A5C5FC
Accurately ripped (confidence 2) [25BF71C4] (AR v1)
Copy OK
Track 5
Filename F:\new music downloads\Company 91 - 1991 - Volume 2\05 - JZ-BK-PT.wav
Peak level 43.5 %
Extraction speed 2.2 X
Track quality 100.0 %
Test CRC E9F4E5F4
Copy CRC E9F4E5F4
Accurately ripped (confidence 2) [2B8BE953] (AR v1)
Copy OK
Track 6
Filename F:\new music downloads\Company 91 - 1991 - Volume 2\06 - YR-AB-VM.wav
Peak level 72.7 %
Extraction speed 2.4 X
Track quality 100.0 %
Test CRC EC4A1454
Copy CRC EC4A1454
Accurately ripped (confidence 2) [082F8A2B] (AR v1)
Copy OK
Track 7
Filename F:\new music downloads\Company 91 - 1991 - Volume 2\07 - PL-DB-PT.wav
Peak level 71.9 %
Extraction speed 2.3 X
Track quality 100.0 %
Test CRC A48F14FA
Copy CRC A48F14FA
Accurately ripped (confidence 2) [379C384F] (AR v1)
Copy OK
Track 8
Filename F:\new music downloads\Company 91 - 1991 - Volume 2\08 - PR-AB-BK.wav
Peak level 63.0 %
Extraction speed 2.6 X
Track quality 100.0 %
Test CRC B7B42231
Copy CRC B7B42231
Accurately ripped (confidence 2) [5D7CF341] (AR v1)
Copy OK
All tracks accurately ripped
No errors occurred
End of status report
==== Log checksum F591ABB8B40EA09C83C42C0669BCE2065CED9D0C2843D8635B29A606E10E5072 ====
 
Содержание индексной карты (.CUE)
REM GENRE Avantgarde
REM DATE 1991
REM DISCID 8510B408
REM COMMENT "ExactAudioCopy v1.0b3"
CATALOG 0000000000000
PERFORMER "Company 91"
TITLE "Volume 2"
FILE "01 - PT-PR-PL.wav" WAVE
TRACK 01 AUDIO
TITLE "PT-PR-PL"
PERFORMER "Company 91"
PREGAP 00:00:55
INDEX 01 00:00:00
FILE "02 - BK-YR-VM.wav" WAVE
TRACK 02 AUDIO
TITLE "BK-YR-VM"
PERFORMER "Company 91"
INDEX 01 00:00:00
FILE "03 - VM-JZ-PT.wav" WAVE
TRACK 03 AUDIO
TITLE "VM-JZ-PT"
PERFORMER "Company 91"
INDEX 01 00:00:00
FILE "04 - AB-DB.wav" WAVE
TRACK 04 AUDIO
TITLE "AB-DB"
PERFORMER "Company 91"
INDEX 01 00:00:00
FILE "05 - JZ-BK-PT.wav" WAVE
TRACK 05 AUDIO
TITLE "JZ-BK-PT"
PERFORMER "Company 91"
INDEX 01 00:00:00
FILE "06 - YR-AB-VM.wav" WAVE
TRACK 06 AUDIO
TITLE "YR-AB-VM"
PERFORMER "Company 91"
INDEX 01 00:00:00
FILE "07 - PL-DB-PT.wav" WAVE
TRACK 07 AUDIO
TITLE "PL-DB-PT"
PERFORMER "Company 91"
INDEX 01 00:00:00
FILE "08 - PR-AB-BK.wav" WAVE
TRACK 08 AUDIO
TITLE "PR-AB-BK"
PERFORMER "Company 91"
INDEX 01 00:00:00
 
Состав
Alto Saxophone – John Zorn
Bass – Paul Rogers
Guitar – Buckethead, Derek Bailey
Percussion – Paul Lovens
Piano, Electronics – Pat Thomas
Trombone – Yves Robert
Violin – Alexander Balanescu
Voice – Vanessa Mackness
Any questions -> support@pro-jazz.com. По всем вопросам пишите -> support@pro-jazz.com
01:34
128
Нет комментариев. Ваш будет первым!