Вы используете незарегистрированную версию компонента "Вкладки"!

Поиск

(Free Improvisation) [CD] Peter Brotzmann / Mats Gustafsson / Paal Nilssen-Love - The Fat Is Gone - 2007, FLAC (image+.cue), lossless

(Free Improvisation) [CD] Peter Brotzmann / Mats Gustafsson / Paal Nilssen-Love - The Fat Is Gone - 2007, FLAC (image+.cue), lossless
Треклист:
Peter Brötzmann - Mats Gustafsson - Paal Nilssen-Love / The Fat Is Gone
Жанр: Free Improvisation
Носитель: CD
Страна-производитель диска: Norway
Год издания: 2007
Издатель (лейбл): Smalltown Superjazzz
Номер по каталогу: STSJ138CD
Аудиокодек: FLAC (*.flac)
Тип рипа: image+.cue
Битрейт аудио: lossless
Продолжительность: 61:25
Источник (релизер): CD
Наличие сканов в содержимом раздачи: нет
Треклист:
1. Bullets Through Rain 9:58
2. Colours In Action 28:54
3. The Fat Is Gone 22:34
 
Лог создания рипа
Exact Audio Copy V1.0 beta 2 from 29. April 2011
EAC extraction logfile from 15. March 2014, 10:19
Brotzmann, Gustafsson, Nilssen-Love / The Fat Is Gone
Used drive : Optiarc DVD RW AD-7170A Adapter: 0 ID: 0
Read mode : Secure
Utilize accurate stream : Yes
Defeat audio cache : Yes
Make use of C2 pointers : No
Read offset correction : 48
Overread into Lead-In and Lead-Out : No
Fill up missing offset samples with silence : Yes
Delete leading and trailing silent blocks : No
Null samples used in CRC calculations : Yes
Used interface : Native Win32 interface for Win NT & 2000
Used output format : User Defined Encoder
Selected bitrate : 320 kBit/s
Quality : High
Add ID3 tag : No
Command line compressor : C:\Program Files\Exact Audio Copy\Flac\flac.exe
Additional command line options : -V -8 -T "Date=%year%" -T "Genre=%genre%" %source%
TOC of the extracted CD
Track | Start | Length | Start sector | End sector
---------------------------------------------------------
1 | 0:00.00 | 9:57.40 | 0 | 44814
2 | 9:57.40 | 28:53.73 | 44815 | 174862
3 | 38:51.38 | 22:34.22 | 174863 | 276434
Range status and errors
Selected range
Filename K:\ЕАС\Brotzmann, Gustafsson, Nilssen-Love - The Fat Is Gone.wav
Peak level 98.8 %
Extraction speed 1.8 X
Range quality 99.9 %
Test CRC 2124542F
Copy CRC 2124542F
Copy OK
No errors occurred
AccurateRip summary
Track 1 accurately ripped (confidence 2) [69805EE1] (AR v2)
Track 2 accurately ripped (confidence 3) [C1B72D2F] (AR v2)
Track 3 accurately ripped (confidence 2) [DB10334F] (AR v2)
All tracks accurately ripped
End of status report
==== Log checksum 2CC1A73D23F572BAC79DE56D78F1DDCA479B4896DE98F4D9D64F1950A0B412E6 ====
 
Содержание индексной карты (.CUE)
REM GENRE Jazz
REM DATE 2007
REM DISCID 240E6503
REM COMMENT "ExactAudioCopy v1.0b2"
PERFORMER "Brotzmann, Gustafsson, Nilssen-Love"
TITLE "The Fat Is Gone"
FILE "Brotzmann, Gustafsson, Nilssen-Love - The Fat Is Gone.flac" WAVE
TRACK 01 AUDIO
TITLE "Bullets Through Rain "
PERFORMER "Brotzmann, Gustafsson, Nilssen-Love"
ISRC NOSTS0738010
INDEX 01 00:00:00
TRACK 02 AUDIO
TITLE "Colours In Action"
PERFORMER "Brotzmann, Gustafsson, Nilssen-Love"
ISRC NOSTS0738020
INDEX 01 09:57:40
TRACK 03 AUDIO
TITLE "The Fat Is Gone"
PERFORMER "Brotzmann, Gustafsson, Nilssen-Love"
ISRC NOSTS0738030
INDEX 01 38:51:38
Доп. информация: Recorded live in Concert on July 20th at Reknes / Molde Jazzfestival / Norway. Mixed and mastered at Decibel.No / Oslo / Norway / November 2006
 
Об альбоме (сборнике)
Recorded live at the 2006 Molde International Jazz Festival in Norway, this blowing session with superlungs warrior Peter Brötzmann on alto and tenor saxophone and bass clarinet, power improviser Mats Gustafsson on baritone saxophone and his flutophone, and the amazing über-drummer Paal Nilssen-Love is almost exactly what you'd expect. Released on Smalltown Superjazz from Oslo, this intense yet focused free improvisation is just over an hour in length and spans three different selections. The set roars out of the gate with "Bullets in the Rain," with both horn players going for broke and Nilssen-Love simultaneously holding it earthbound while moving it all forward foot by foot until the two saxophonists are in each other's faces in a dialogic communication that is about as subtle as a tank fueled by nitrous oxide. It's rip-your-head-off music that takes no prisoners, never travels less than 90, and still offers fine solos from all three players while clocking in at just under ten minutes as a warm-up sprint for the other two pieces, "Colours in Action" (28:54) and the title cut (22:34). Things begin slowly on "Colours in Action." A single horn player -- beginning with Gustafsson on baritone, bubbling, spitting, and wrangling tortured notes out of his horn -- is accompanied only by random percussion instruments from Nilssen-Love. Brötzmann enters at about six minutes playing his bass clarinet and things get softer. It's almost a study in balladic counterpoint. This textural diversion proves to be exactly that after seven and a half minutes, and then we're back to skronkville with the players so heated up there is nowhere else to go but through the sound barrier, the only dynamic remaining in the piece being a wonderfully intricate yet still overdriven drum solo. The title cut, to finish the performance, combines the best of both worlds in its first nine minutes, with an intricate dialogue going on between saxophonists and drummer, percussion and flutophone, with textural washes of long, harsh yet restrained tones and quick flurries of interplay. But once again, there is nowhere to go but through the roof, and the rocket is off again with somebody shouting because there is no room left on the horn for the notes he wants to get to! One is reminded of airplanes dueling in the sky, swooping and charging one another, wrapping the heavens in turbulent violence that from the ground looks strangely beautiful. This sounds that way -- utterly alien, completely inspired, and furiously active. Moments of tongue technique and skittering hand percussion between the trio collisions add some welcome dynamics, but they also create tension because the listener knows what's going to happen, just not where. The way these players follow one another, spot-on quoting one another's phrases, then offering something in return, is stuff of great gamesmanship and musicianship as well as sonic warfare. All killer, no filler.
 
Состав
Baritone Saxophone, Reeds [Flutophone] – Mats Gustafsson
Drums, Percussion – Paal Nilssen-Love
Tenor Saxophone, Alto Saxophone, Bass Clarinet – Peter Brötzmann
Any questions -> support@pro-jazz.com. По всем вопросам пишите -> support@pro-jazz.com
00:15
166
Нет комментариев. Ваш будет первым!