Вы используете незарегистрированную версию компонента "Вкладки"!

Поиск

(Free Improvisation) [CD] Mario Schiano, Xu Fengxia, Martin Blume - Dear Peter - 2003, FLAC (tracks+.cue), lossless

(Free Improvisation) [CD] Mario Schiano, Xu Fengxia, Martin Blume - Dear Peter - 2003, FLAC (tracks+.cue), lossless
Треклист:
MARIO SCHIANO / Xu FENGXIA / MARTIN BLUME
DEAR PETER... Жанр: Free Improvisation
Страны исполнителей: Italy/China/Germany
Носитель: CD
Страна-производитель диска (релиза): France
Год издания: 2003
Издатель (лейбл): Improjazz
Номер по каталогу: PRGT 001
Аудиокодек: FLAC (*.flac)
Тип рипа: tracks+.cue
Битрейт аудио: lossless
Продолжительность: 00:42:32
Источник (релизер): soulseek
Наличие сканов в содержимом раздачи: да
Треклист:
1. Dear Peter Part 1
2. Dear Peter Part 2
3. Dear Peter Part 3
4. Dear Peter Part 4
Mario Schiano - alto saxophone, soprano saxophone
Xu Fengxia - guzheng, voice
Martin Blume - drums
Recorded on 25 October 2002 at Opera Paese, Rome during XVI festival Controindicazioni
 
EAC log
Exact Audio Copy V0.99 prebeta 4 from 23. January 2008
EAC extraction logfile from 23. January 2014, 16:09
Mario Schiano, Xu Fengxia, Martin Blume / Dear Peter
Used drive : Optiarc DVD RW AD-7280S Adapter: 4 ID: 0
Read mode : Secure
Utilize accurate stream : Yes
Defeat audio cache : Yes
Make use of C2 pointers : Yes
Read offset correction : 48
Overread into Lead-In and Lead-Out : No
Fill up missing offset samples with silence : Yes
Delete leading and trailing silent blocks : No
Null samples used in CRC calculations : Yes
Used interface : Installed external ASPI interface
Gap handling : Appended to previous track
Used output format : User Defined Encoder
Selected bitrate : 896 kBit/s
Quality : High
Add ID3 tag : Yes
Command line compressor : C:\Program Files\FLAC\flac.exe
Additional command line options : -8 -V -T "artist=%a" -T "title=%t" -T "album=%g" -T "date=%y" -T "tracknumber=%n" -T "genre=%m" %s
TOC of the extracted CD
Track | Start | Length | Start sector | End sector
---------------------------------------------------------
1 | 0:00.00 | 14:24.40 | 0 | 64839
2 | 14:24.40 | 9:03.20 | 64840 | 105584
3 | 23:27.60 | 11:42.18 | 105585 | 158252
4 | 35:10.03 | 7:28.08 | 158253 | 191860
Track 1
Filename C:\Lab 1\0 new rips\Mario Schiano, Xu Fengxia, Martin Blume - Dear Peter\01 - Dear Peter part 1.wav
Pre-gap length 0:00:02.00
Peak level 100.0 %
Track quality 100.0 %
Copy CRC 1827B871
Track not present in AccurateRip database
Copy OK
Track 2
Filename C:\Lab 1\0 new rips\Mario Schiano, Xu Fengxia, Martin Blume - Dear Peter\02 - Dear Peter part 2.wav
Pre-gap length 0:00:02.00
Peak level 100.0 %
Track quality 100.0 %
Copy CRC 18C5C9C3
Track not present in AccurateRip database
Copy OK
Track 3
Filename C:\Lab 1\0 new rips\Mario Schiano, Xu Fengxia, Martin Blume - Dear Peter\03 - Dear Peter part 3.wav
Pre-gap length 0:00:02.00
Peak level 100.0 %
Track quality 100.0 %
Copy CRC 64820C10
Track not present in AccurateRip database
Copy OK
Track 4
Filename C:\Lab 1\0 new rips\Mario Schiano, Xu Fengxia, Martin Blume - Dear Peter\04 - Dear Peter part 4.wav
Pre-gap length 0:00:02.00
Peak level 100.0 %
Track quality 100.0 %
Copy CRC 87ECE89C
Track not present in AccurateRip database
Copy OK
None of the tracks are present in the AccurateRip database
No errors occurred
End of status report
 
.cue
REM DATE 2002
REM DISCID 2A09FE04
REM COMMENT "ExactAudioCopy v0.99pb4"
PERFORMER "Mario Schiano, Xu Fengxia, Martin Blume"
TITLE "Dear Peter"
FILE "01 - Dear Peter part 1.wav" WAVE
TRACK 01 AUDIO
TITLE "Dear Peter part 1"
PERFORMER "Mario Schiano, Xu Fengxia, Martin Blume"
INDEX 01 00:00:00
TRACK 02 AUDIO
TITLE "Dear Peter part 2"
PERFORMER "Mario Schiano, Xu Fengxia, Martin Blume"
INDEX 00 14:22:40
FILE "02 - Dear Peter part 2.wav" WAVE
INDEX 01 00:00:00
TRACK 03 AUDIO
TITLE "Dear Peter part 3"
PERFORMER "Mario Schiano, Xu Fengxia, Martin Blume"
INDEX 00 09:01:20
FILE "03 - Dear Peter part 3.wav" WAVE
INDEX 01 00:00:00
TRACK 04 AUDIO
TITLE "Dear Peter part 4"
PERFORMER "Mario Schiano, Xu Fengxia, Martin Blume"
INDEX 00 11:40:18
FILE "04 - Dear Peter part 4.wav" WAVE
INDEX 01 00:00:00
 
auCDtect
-----------------------
DON'T MODIFY THIS FILE
-----------------------
PERFORMER: auCDtect Task Manager, ver. 1.6.0 RC1 build 1.6.0.1
Copyright (c) 2008-2010 y-soft. All rights reserved
http://y-soft.org
ANALYZER: auCDtect: CD records authenticity detector, version 0.8.2
Copyright (c) 2004 Oleg Berngardt. All rights reserved.
Copyright (c) 2004 Alexander Djourik. All rights reserved.
FILE: 01 - Dear Peter part 1.flac
Size: 68387368 Hash: F566AF91C09A6C4EDB1AFD4AE0F226B8 Accuracy: -m0
Conclusion: CDDA 86%
Signature: 8AC093D0F9FCDBD88792066AC050E677117EDD97
FILE: 02 - Dear Peter part 2.flac
Size: 41269219 Hash: 589763ACAE0BBE26EAF60A7CC9074AD7 Accuracy: -m0
Conclusion: CDDA 99%
Signature: E76297B5CBAB2F954B7A8A7C314A6590812109E0
FILE: 03 - Dear Peter part 3.flac
Size: 53693061 Hash: 618A25723315B3B9C76D37F8A05EBD28 Accuracy: -m0
Conclusion: CDDA 100%
Signature: CC6344226272F25D53CB60F0B50FE71AE298B584
FILE: 04 - Dear Peter part 4.flac
Size: 32897353 Hash: 255D4D11744EC4482A2F3C7B9FAFEE74 Accuracy: -m0
Conclusion: CDDA 100%
Signature: 83AFE8E3B415E9BF2C74B80EE3D1B58E8DB2FD46
По всем вопросам пишите личное сообщение пользователю M0p94ok.
13:40
196
Нет комментариев. Ваш будет первым!